Контейнер матрешки (MKA)

Список разделов Другое Аудиоформаты

Описание: Аудиоформаты, конвертация и другие связанные вопросы

Сообщение #1 Бешеный матем » 16.03.2009, 00:42

Седня узнал, что у матрешки есть отдельный вариант под аудио (*.MKA). Якобы есть поддержка в фубаре.
Пока я определил только то, что проигрывается только звук. Другие файлы из контейнера не подхватываются.

Кто что знает про это все? Надежда есть или следует забыть этот вариант?
Бешеный матем M
Автор темы, Новичок
Аватара
Откуда: Харьков, Украина
Репутация: 0
С нами: 8 лет 8 месяцев

Сообщение #2 meDveD » 16.03.2009, 01:01

а что ещё должно подхватываться?
фубар и MKV тоже читает, ну то есть только аудио часть и только первую дорожку.
MKA и MKV это не форматы видео или сжатия аудио, это лишь контейнеры, а музыка в том виде в каком она существует сейчас и так отлично слушается/хранится, без каких-то лишних оболочек.
Вот обёрнутое видео в MKV это другое дело, там и потребности в этом есть..
Последний раз редактировалось Sp1ke 16.03.2009, 01:03, всего редактировалось 1 раз.
http://www.last.fm/user/meDveD_spb
meDveD M
Гуру
Возраст: 30
Откуда: SPb
Репутация: 52
С нами: 11 лет

Сообщение #3 Бешеный матем » 16.03.2009, 01:35

2meDveD
ммм...
Ну, вообще говоря я имел в виду немного другое. Меня интересует контейнер, данные в котором меняться не будут (image, cue). Будут меняться мета-данные. Контейнер - не папка, в которой все валяется без разбора. В лучшем случае правильно поименованное. В контейнере все связи установлены (куй, обложки, слова...).

Вообще говоря, причины похожи на те, почему люди несколько звук.дорожек и сабы упаковывают в *.мкв. Кроме еще одного желания - защитить образ и куй от желания всех прог вписать\изменить теги.
Последний раз редактировалось Бешеный матем 16.03.2009, 01:37, всего редактировалось 1 раз.
Бешеный матем M
Автор темы, Новичок
Аватара
Откуда: Харьков, Украина
Репутация: 0
С нами: 8 лет 8 месяцев

Сообщение #4 meDveD » 16.03.2009, 01:55

ну в фубаре даже не заявлена поддержка этого формата, аудио из контейнера читает и то ладно, но не раскрывает потенциал,
да и есть ли вообще программы которые похвастаются полной поддержкой MKA..

дело в том, как мне кажется, MKA никому не нужен, ибо всё это можно сделать обычным способом без дополнительной оболочки
либо iso.wv, либо обычный lossless-образ, ведь куй, обложка, лирика, лог-файл всё это может храниться в тегах,
но даже в таком виде (всё-в-одном) никому не нужно, ибо в конечном счёте всё утыкается в поддержку hardware, а её нет.
http://www.last.fm/user/meDveD_spb
meDveD M
Гуру
Возраст: 30
Откуда: SPb
Репутация: 52
С нами: 11 лет

Сообщение #5 Бешеный матем » 16.03.2009, 02:37

meDveD писал(а):ну в фубаре даже не заявлена поддержка этого формата,
в новой бетке, якобы есть. Но по моим наблюдениям - ничего не изменилось.

meDveD писал(а):да и есть ли вообще программы которые похвастаются полной поддержкой MKA..
я не нашел. Думаю, что нет.

meDveD писал(а):как мне кажется, MKA никому не нужен
уверен, что большинство думает так-же. Но большинство слушает lossy.

meDveD писал(а):ибо всё это можно сделать обычным способом без дополнительной оболочки
Я вот тут я в корне не согласен. Главная причина, а я ее несколько раз вспоминал, это изменение файла-образа метаданными. Это очень сильно усложняет проверку хеш-суммы. Тк все тут пользуются пиринговыми сетями и знают о несовершенстве техники (не говоря о вирусах), то это должен быть весомый аргумент.

meDveD писал(а):либо iso.wv,
а это уже оболочка. Более того, ни исо ни вавпак не предназначены быть оболочкой. До сегодняшнего дня исо.вв имел ровно 1 плюс. Это был единственный известный мне контейнер.

meDveD писал(а):либо обычный lossless-образ, ведь куй, обложка, лирика, лог-файл всё это может храниться в тегах,
Про теги писал выше. Еще одно - распаковка. В хорошем релизе есть аудио файл и ... 2 куя, лог, лирика на каждый трек (не нашел ни одной реализации лирики 1 файл/альбом), несколько обложек, иногда принтскрины анализаторов. Вот теперь представь, что ты это извлекаешь по одному файлу.

meDveD писал(а):но даже в таком виде (всё-в-одном) никому не нужно
Исо.вв ни разу не раскручивается. Мкв не популярно.

meDveD писал(а):ибо в конечном счёте всё утыкается в поддержку hardware, а её нет.
А вот это самый интересный вопрос. Как ты думаешь, что проще реализовать поддержку контейнера или написать кучу вариантов, для нахождения обложки (тег ИД3, тег АПЕ, изображение в папке, подпапка коверы, причем еще в разных форматах)? Поддержка мкв растет быстрее, чем поддержка внешних сабов или, тем более, звуковых дорожек. Это рас.
Два. Тот, кто создал матрешку, создал CorePlayer. Да он платный, но таки очень популярный. И не удивительно, он поддерживает практически все платформы, оптимизирован и кушает практически любой формат. И если я захочу слушать музыку (не мп3) на мобильном устройстве, мне все равно пришлось бы ставить его или рокбокс.

И последнее. Мне, как программисту, легче писать плагин для матрешки (хмл), чем для файловой системы исо. Но это крайний вариант. Тк в моем нынешнем положении займет чертову уйму времени.
Бешеный матем M
Автор темы, Новичок
Аватара
Откуда: Харьков, Украина
Репутация: 0
С нами: 8 лет 8 месяцев

Сообщение #6 Бешеный матем » 16.03.2009, 16:29

[font=Verdana]---ДА!!!---[/font]  %)
При помощи mkvmerge можно добавить куй. Файл сам разобьется на части.
Еще смог добавить обложку.
Пока заставил работать поля
  • Artist name
  • Track title
  • Genre
  • Track number
  • comment
  • Стандартная обложка

[code=Оригинальный куй]
REM GENRE Rock
REM DATE 2007
REM DISCID 9B0D150D
REM COMMENT "ExactAudioCopy v0.99pb4"
PERFORMER "Машина Времени"
TITLE "Time Machine"
FILE "Машина Времени - Time Machine.wv" WAVE
  TRACK 01 AUDIO
    TITLE "Полный Контакт"
    PERFORMER "Машина Времени"
    INDEX 01 00:00:00
  TRACK 02 AUDIO
    TITLE "Улетай"
    PERFORMER "Машина Времени"
    INDEX 00 04:28:29
    INDEX 01 04:29:21
  TRACK 03 AUDIO
    TITLE "Старый Самолёт"
    PERFORMER "Машина Времени"
    INDEX 01 08:03:74
  TRACK 04 AUDIO
    TITLE "То, Чего Больше Нет"
    PERFORMER "Машина Времени"
    INDEX 00 11:55:74
    INDEX 01 11:58:30
  TRACK 05 AUDIO
    TITLE "Слива"
    PERFORMER "Машина Времени"
    INDEX 00 16:52:46
    INDEX 01 16:53:11
  TRACK 06 AUDIO
    TITLE "Пой"
    PERFORMER "Машина Времени"
    INDEX 01 21:59:47
  TRACK 07 AUDIO
    TITLE "Ночь За Твоим Плечом"
    PERFORMER "Машина Времени"
    INDEX 01 28:02:17
  TRACK 08 AUDIO
    TITLE "Простите"
    PERFORMER "Машина Времени"
    INDEX 00 31:28:17
    INDEX 01 31:29:25
  TRACK 09 AUDIO
    TITLE "Новая Весна Тебя Убьёт"
    PERFORMER "Машина Времени"
    INDEX 00 35:36:38
    INDEX 01 35:36:72
  TRACK 10 AUDIO
    TITLE "Кил - Бил"
    PERFORMER "Машина Времени"
    INDEX 00 39:47:41
    INDEX 01 39:48:59
  TRACK 11 AUDIO
    TITLE "Небо Напомнит"
    PERFORMER "Машина Времени"
    INDEX 01 43:22:43
  TRACK 12 AUDIO
    TITLE "Ангел"
    PERFORMER "Машина Времени"
    INDEX 00 46:43:25
    INDEX 01 46:44:29
  TRACK 13 AUDIO
    TITLE "Корабли"
    PERFORMER "Машина Времени"
    INDEX 00 50:31:57
    INDEX 01 50:31:73
[/code]
результат
Изображение

Кто-нить хочет помочь заниматься фигней?
PS
как тут делать спойлеры?
Последний раз редактировалось Бешеный матем 16.03.2009, 17:01, всего редактировалось 1 раз.
Бешеный матем M
Автор темы, Новичок
Аватара
Откуда: Харьков, Украина
Репутация: 0
С нами: 8 лет 8 месяцев

Сообщение #7 meDveD » 16.03.2009, 16:49

Хм. интересно. Надо тоже посмотреть эту программу,
наверняка есть ещё какие-то программки для работы с mka.
http://www.last.fm/user/meDveD_spb
meDveD M
Гуру
Возраст: 30
Откуда: SPb
Репутация: 52
С нами: 11 лет

Сообщение #8 Бешеный матем » 16.03.2009, 16:55

весело работает в Home Cinema player. С главами и показывает обложку.
В KMPlayer неверно работают главы (кроме нормальных имен еще есть все индексы, перемотка по главам не работает). Но у меня этот плеер в целом глючит.

Еще раз, как тут делать спойлеры?
Бешеный матем M
Автор темы, Новичок
Аватара
Откуда: Харьков, Украина
Репутация: 0
С нами: 8 лет 8 месяцев

Сообщение #9 meDveD » 16.03.2009, 16:58

Еще раз, как тут делать спойлеры?
никак, нет их здесь
используй тэг "Код" например.
http://www.last.fm/user/meDveD_spb
meDveD M
Гуру
Возраст: 30
Откуда: SPb
Репутация: 52
С нами: 11 лет

Сообщение #10 Бешеный матем » 16.03.2009, 22:09

Как узнать метод обработки тегов матрешки фубаром?
Обычно фубар в свойствах (ктрл+ентер) показывает тип (ИД3 \ АПЕ2). А тут просто ничего.
Просто не поймешь в чем копаться
  • как теги пишуться в матрешке
  • как мквтулс обрабатывает куй
  • что фубар вообще читает
  • собственно, что прочитал фубар и как это распределил-поял-переименовал - это более-менее понятно
Бешеный матем M
Автор темы, Новичок
Аватара
Откуда: Харьков, Украина
Репутация: 0
С нами: 8 лет 8 месяцев


Вернуться в Аудиоформаты