dsp плагин для moskva.FM

Список разделов Аудиоплеер foobar2000 Плагины

Описание: Все о плагинах, компонентах, расширениях

Сообщение #1 Alexufo2 » 19.03.2009, 01:11

Знаете сервис наверное москва фм.

Скачал с него  передачу.
Запись в 40 минут побита на минутные треки.2 секунды следующего трека включены на конец предыдущего.(Это видимо для кросфейдинга.)
Задача - склеить все в один файл без глюклов и щелчков.

Найденное решение такое без фубара.
------------------------------
Нужно перегнать в wav все 40 файлов. ( в mp3 глюки склейки всегда) Сплиттером поделить записи пакетно по меткам 0.016 и 2.016 ( 0.016 - это из за mp3 шного кодека добавляющего тишину в начало и конец записи).
Остается голая минута в wav без щелчков при склейке.

-------------------------------

Но черт побери, записи сделаны для кросфейдинга!В фубаре есть плагин для кросфейдига continuator.Но я какую неделю сижу не понимаю почему не удается четко сделать!Головой бьюсь об стенку  *MACE*- потому что как легко скаченные записи фубаром в один файл с помощь кросфедейра зафигачить! Мне этих записей за 4 месяца сделать нужно.5 штук на неделе.

Я высчитал все паузы, все фреймы, сравнивал  gap паузы разных декодеров, ничего не получается.Фубар все равно выдает какой то артефакт при смешивании : то голос робота ( рассинхронизация) то когда все четко ( при 2019 ms переходе )  голос становится заметно тише.Фаза какая гасит сама себя - без понятия.
-------------------------------

Просьба помочь, товарищи. Мой ум упирается в знания программирования dsp плагинов.Я не знаю почему кросфейдер фубара и continuator ведут себя таким образом!


Архив куском передачи лежит здесь.
http://webfile.ru/3246072

потестите плиз его с плагом  continuator




------------------------------
если с кросфейдингом не получится, пишет ли кто здесь плагин за  денежку?)
Нужно просто отрезать куски слева и справа.Плаг для кропа.
Последний раз редактировалось Alexufo2 19.03.2009, 10:35, всего редактировалось 1 раз.
Alexufo2 M
Автор темы, Новичок
Откуда: Тула
Репутация: 0
С нами: 11 лет

Сообщение #2 vanek fm » 19.03.2009, 01:36

Вопрос возможно немного не в тему. А почему бы вам не склеить и не отредактировать готовую запись в отдельном редакторе, даже в очень простеньком, например Audacity, я уж не говорю об Adobe Audition ?! Еще раз повторюсь, что возможно не в тему, но задача то стоит как я понимаю склеить все воедино, зачем мучить себя высчитыванием пауз и прочими мозгонапряжениями?!
Изображение
vanek fm
Новичок
Аватара
Репутация: 2
С нами: 12 лет 11 месяцев

Сообщение #3 Alexufo2 » 19.03.2009, 01:39

vanek fm, vanek fm,
vanek fm писал(а):Вопрос возможно немного не в тему. А почему бы вам не склеить и не отредактировать готовую запись в отдельном редакторе, даже в очень простеньком, например Audacity, я уж не говорю об Adobe Audition ?! Еще раз повторюсь, что возможно не в тему, но задача то стоит как я понимаю склеить все воедино, зачем мучить себя высчитыванием пауз и прочими мозгонапряжениями?!
У тебя 40  файлов. 1-ая содержит в конце 2 сек следующей.Сколько ты будешь собирать записи?Точно так же резать их в редакторе.Обрезка пакетная и склейка - лучший вариант по скорости.
Alexufo2 M
Автор темы, Новичок
Откуда: Тула
Репутация: 0
С нами: 11 лет

Сообщение #4 vanek fm » 19.03.2009, 02:42

Так то оно так, но если придется делать подобное периодически, то тогда нужно все таки подумать, а если делать сие в единичных случаях, то не так уж и рутинно. Вот кстати склеил тебе те 10 частей, что были в архиве - http://multi-up.com/69667 , удачки!
Последний раз редактировалось vanek fm 19.03.2009, 02:44, всего редактировалось 1 раз.
Изображение
vanek fm
Новичок
Аватара
Репутация: 2
С нами: 12 лет 11 месяцев

Сообщение #5 Alexufo2 » 19.03.2009, 10:33

Да зачем ты склеивал.  %) Я архив приложил чтобы кто нибудь плагом continuator. Я сам могу это склеить)  B)
Alexufo2 M
Автор темы, Новичок
Откуда: Тула
Репутация: 0
С нами: 11 лет

Сообщение #6 Alexufo2 » 21.04.2009, 19:15

ребят, ну никто не пишет разве плагины здесь?
Alexufo2 M
Автор темы, Новичок
Откуда: Тула
Репутация: 0
С нами: 11 лет

Сообщение #7 panda » 22.04.2009, 03:10

а их обязательно физически склеивать?
или может достаточно сделать CUE или плейлист, в котором бы всё воспроизводилось ровно?
Панды занесены в Книгу рекордов Гиннеса как самые привлекательные из редких животных
panda M
Бывалый
Аватара
Возраст: 36
Репутация: 12
С нами: 13 лет 6 месяцев

Сообщение #8 Alexufo2 » 22.04.2009, 11:04

файлы должны идти в нахлест на 2.029  мс.
Alexufo2 M
Автор темы, Новичок
Откуда: Тула
Репутация: 0
С нами: 11 лет

Сообщение #9 panda » 22.04.2009, 11:40

попробуй такой куй:
[code=radio.cue]FILE "file01.mp3" WAVE
  TRACK 01 AUDIO
    INDEX 01 00:02:02
FILE "file02.mp3" WAVE
  TRACK 02 AUDIO
    INDEX 01 00:02:02
FILE "file03.mp3" WAVE
  TRACK 03 AUDIO
    INDEX 01 00:02:02
FILE "file04.mp3" WAVE
  TRACK 04 AUDIO
    INDEX 01 00:02:02
FILE "file05.mp3" WAVE
  TRACK 05 AUDIO
    INDEX 01 00:02:02
FILE "file06.mp3" WAVE
  TRACK 06 AUDIO
    INDEX 01 00:02:02
FILE "file07.mp3" WAVE
  TRACK 07 AUDIO
    INDEX 01 00:02:02
FILE "file08.mp3" WAVE
  TRACK 08 AUDIO
    INDEX 01 00:02:02
FILE "file09.mp3" WAVE
  TRACK 09 AUDIO
    INDEX 01 00:02:02
FILE "file10.mp3" WAVE
  TRACK 10 AUDIO
    INDEX 01 00:02:02
FILE "file11.mp3" WAVE
  TRACK 11 AUDIO
    INDEX 01 00:02:02
FILE "file12.mp3" WAVE
  TRACK 12 AUDIO
    INDEX 01 00:02:02
FILE "file13.mp3" WAVE
  TRACK 13 AUDIO
    INDEX 01 00:02:02
FILE "file14.mp3" WAVE
  TRACK 14 AUDIO
    INDEX 01 00:02:02
FILE "file15.mp3" WAVE
  TRACK 15 AUDIO
    INDEX 01 00:02:02
FILE "file16.mp3" WAVE
  TRACK 16 AUDIO
    INDEX 01 00:02:02
FILE "file17.mp3" WAVE
  TRACK 17 AUDIO
    INDEX 01 00:02:02
FILE "file18.mp3" WAVE
  TRACK 18 AUDIO
    INDEX 01 00:02:02
FILE "file19.mp3" WAVE
  TRACK 19 AUDIO
    INDEX 01 00:02:02
FILE "file20.mp3" WAVE
  TRACK 20 AUDIO
    INDEX 01 00:02:02
FILE "file21.mp3" WAVE
  TRACK 21 AUDIO
    INDEX 01 00:02:02
FILE "file22.mp3" WAVE
  TRACK 22 AUDIO
    INDEX 01 00:02:02
FILE "file23.mp3" WAVE
  TRACK 23 AUDIO
    INDEX 01 00:02:02
FILE "file24.mp3" WAVE
  TRACK 24 AUDIO
    INDEX 01 00:02:02
FILE "file25.mp3" WAVE
  TRACK 25 AUDIO
    INDEX 01 00:02:02
FILE "file26.mp3" WAVE
  TRACK 26 AUDIO
    INDEX 01 00:02:02
FILE "file27.mp3" WAVE
  TRACK 27 AUDIO
    INDEX 01 00:02:02
FILE "file28.mp3" WAVE
  TRACK 28 AUDIO
    INDEX 01 00:02:02
FILE "file29.mp3" WAVE
  TRACK 29 AUDIO
    INDEX 01 00:02:02
FILE "file30.mp3" WAVE
  TRACK 30 AUDIO
    INDEX 01 00:02:02
FILE "file31.mp3" WAVE
  TRACK 31 AUDIO
    INDEX 01 00:02:02
FILE "file32.mp3" WAVE
  TRACK 32 AUDIO
    INDEX 01 00:02:02
FILE "file33.mp3" WAVE
  TRACK 33 AUDIO
    INDEX 01 00:02:02
FILE "file34.mp3" WAVE
  TRACK 34 AUDIO
    INDEX 01 00:02:02
FILE "file35.mp3" WAVE
  TRACK 35 AUDIO
    INDEX 01 00:02:02
FILE "file36.mp3" WAVE
  TRACK 36 AUDIO
    INDEX 01 00:02:02
FILE "file37.mp3" WAVE
  TRACK 37 AUDIO
    INDEX 01 00:02:02
FILE "file38.mp3" WAVE
  TRACK 38 AUDIO
    INDEX 01 00:02:02
FILE "file39.mp3" WAVE
  TRACK 39 AUDIO
    INDEX 01 00:02:02
FILE "file40.mp3" WAVE
  TRACK 40 AUDIO
    INDEX 01 00:02:02
[/code]
Панды занесены в Книгу рекордов Гиннеса как самые привлекательные из редких животных
panda M
Бывалый
Аватара
Возраст: 36
Репутация: 12
С нами: 13 лет 6 месяцев

Сообщение #10 Alexufo2 » 22.04.2009, 12:03

хм. Отличная идея) но мне нужны милесекунды. Cue файлы поддерживают милЛесекунды?
вообще должен - в документацию пока не врублюсь)
Последний раз редактировалось Alexufo2 22.04.2009, 12:05, всего редактировалось 1 раз.
Alexufo2 M
Автор темы, Новичок
Откуда: Тула
Репутация: 0
С нами: 11 лет

Сообщение #11 panda » 22.04.2009, 12:10

нифига не поддерживает. всё, что тебе доступно: ±1 фрейм
Панды занесены в Книгу рекордов Гиннеса как самые привлекательные из редких животных
panda M
Бывалый
Аватара
Возраст: 36
Репутация: 12
С нами: 13 лет 6 месяцев


Вернуться в Плагины