Xchange by Br3tt

Список разделов Аудиоплеер foobar2000 Частные конфигурации

Описание: Вопросы по частным конфигурациям.

Сообщение #181 Zin-Uru » 16.03.2010, 00:26

Пожалуйста!
Zin-Uru M
Мастер
Репутация: 41
С нами: 7 лет 6 месяцев

Сообщение #182 Zin-Uru » 16.03.2010, 19:29

Обновление Moodbar, в котором исправлен баг с импортом настроек плейлиста. Если у вас все поставилось нормально, то обновление вам не нужно.
Модифицированный Moodbar (для 3.6.0)
Zin-Uru M
Мастер
Репутация: 41
С нами: 7 лет 6 месяцев

Сообщение #183 Jny » 17.03.2010, 01:51

создал отдельную тему для yin yang, отличный конфиг!
Jny
Бывалый
Репутация: 1
С нами: 8 лет 9 месяцев

Сообщение #184 d1tt0 » 18.03.2010, 17:02

Ребят помогите побороть трабл с .ape
Проблема заключается в том, что последний трек подхватывается, но вот так отображается:
Изображение

Все предыдущие отображаются нормально.
Плуги:
Код: Выделить всё
Core (2010-03-06 14:44:16)
    foobar2000 core 1.0.1
foo_albumlist.dll (2010-03-06 14:42:18)
    Album List 4.4
foo_cdda.dll (2010-03-06 14:42:14)
    CD Audio Decoder 3.0
foo_chronflow.dll (2008-04-13 23:16:00)
    Chronial's Coverflow 0.3.0
foo_converter.dll (2010-03-06 14:42:12)
    Converter 1.4
foo_cuefilter.dll (2009-04-28 15:09:44)
    CUE Playlist Filter 0.1.7.0
foo_dsp_std.dll (2010-03-06 14:42:26)
    Standard DSP Array 1.0
foo_input_monkey.dll (2009-05-01 14:40:52)
    Monkey's Audio Decoder 2.1.4
foo_input_std.dll (2010-03-06 14:42:00)
    Standard Input Array 1.0
foo_rgscan.dll (2010-03-06 14:41:56)
    ReplayGain Scanner 2.0.9
foo_ui_columns.dll (2010-01-09 15:40:30)
    Columns UI 0.3.8.3
foo_ui_std.dll (2010-03-06 14:42:34)
    Default User Interface 0.9.5
foo_uie_biography.dll (2010-01-23 17:58:36)
    Biography View 0.4.0.3
foo_uie_elplaylist.dll (2010-02-20 01:57:06)
    ELPlaylist 0.6.7.0(beta)
foo_uie_explorer.dll (2009-05-11 03:37:30)
    Explorer Tree 1.04.7c
foo_uie_graphical_browser.dll (2008-04-19 20:37:54)
    Graphical Browser rev015
foo_uie_library_tree.dll (2010-01-31 00:17:14)
    Library Tree 0.3.4.3
foo_uie_lyrics2.dll (2010-02-03 00:35:08)
    Lyric Show Panel 2 0.4.6.12
foo_uie_panel_splitter.dll (2009-11-26 01:03:32)
    Panel Stack Splitter 0.3.8.2(alpha)
foo_uie_quicksearch.dll (2007-05-18 13:31:10)
    Quick Search Toolbar 2.8l
foo_uie_vis_channel_spectrum.dll (2008-05-18 03:02:12)
    Channel Spectrum panel 0.17.2
foo_uie_wsh_panel_mod.dll (2010-01-28 06:51:58)
    WSH Panel Mod 1.3.1
foo_utils.dll (2008-02-08 22:26:58)
    Playlist Tools 0.6.2 beta 6
foo_vis_shpeck.dll (2009-09-24 19:19:58)
    Shpeck - Winamp vis plugins wrapper 0.3.6
Windows 7, x64
foobar2000 v1.0.1+Xchange 3.6

ps/ В предыдущей сборке foobar2000 v0.9.6.8+Xchange 2.0 все отображается корректно.
d1tt0
Новичок
Репутация: 0
С нами: 10 лет 6 месяцев

Сообщение #185 PsichoStorM » 18.03.2010, 17:07

2d1tt0 Тут надо бы куе посмотреть  :)
Изображение
PsichoStorM M
Бывалый
Аватара
Возраст: 36
Откуда: Moscow
Репутация: 8
С нами: 8 лет 4 месяца

Сообщение #186 d1tt0 » 18.03.2010, 17:25

PsichoStorM,
проблема абсолютно со всеми .ape+.cue  из коллекции

Изображение


cue предыдущий скрин
Код: Выделить всё
REM GENRE Electronic
REM DATE 2004
REM DISCID 19127812
REM COMMENT "ExactAudioCopy v0.99pb4"
PERFORMER "Schiller"
TITLE "Life"
FILE "Schiller - Life.ape" WAVE
  TRACK 01 AUDIO
    TITLE "I Feel You (feat. Heppner)"
    PERFORMER "Schiller"
    INDEX 01 00:00:00
  TRACK 02 AUDIO
    TITLE "Summer Rain"
    PERFORMER "Schiller"
    INDEX 01 03:46:08
  TRACK 03 AUDIO
    TITLE "I've Seen It all (feat. Maya Saban)"
    PERFORMER "Schiller"
    INDEX 01 07:36:65
  TRACK 04 AUDIO
    TITLE "Future (from the movie Gate to Heaven)"
    PERFORMER "Schiller"
    INDEX 01 12:28:08
  TRACK 05 AUDIO
    TITLE "Love (feat. Mila Mar)"
    PERFORMER "Schiller"
    INDEX 01 16:53:60
  TRACK 06 AUDIO
    TITLE "Unison"
    PERFORMER "Schiller"
    INDEX 01 20:41:19
  TRACK 07 AUDIO
    TITLE "I Miss You (feat. Maya Saban)"
    PERFORMER "Schiller"
    INDEX 01 25:20:35
  TRACK 08 AUDIO
    TITLE "Middle Earth"
    PERFORMER "Schiller"
    INDEX 01 31:22:01
  TRACK 09 AUDIO
    TITLE "The Smile (7'' edit feat. Sarah Brightman)"
    PERFORMER "Schiller"
    INDEX 01 36:14:73
  TRACK 10 AUDIO
    TITLE "Triad"
    PERFORMER "Schiller"
    INDEX 01 39:41:01
  TRACK 11 AUDIO
    TITLE "Babel (feat. Mila Mar)"
    PERFORMER "Schiller"
    INDEX 01 44:14:15
  TRACK 12 AUDIO
    TITLE "Desire (feat. Veljanov)"
    PERFORMER "Schiller"
    INDEX 01 48:35:18
  TRACK 13 AUDIO
    TITLE "Tranquillity"
    PERFORMER "Schiller"
    INDEX 01 52:35:24
  TRACK 14 AUDIO
    TITLE "Past"
    PERFORMER "Schiller"
    INDEX 01 56:35:09
  TRACK 15 AUDIO
    TITLE "Delicately Yours ( feat. Kim Sanders)"
    PERFORMER "Schiller"
    INDEX 01 61:03:69
  TRACK 16 AUDIO
    TITLE "Conclusion"
    PERFORMER "Schiller"
    INDEX 01 66:00:31
  TRACK 17 AUDIO
    TITLE "I Feel You (album version feat. Heppner)"
    PERFORMER "Schiller"
    INDEX 01 69:16:70
  TRACK 18 AUDIO
    TITLE "Dream Of You (feat. Heppner)"
    PERFORMER "Schiller"
    INDEX 01 74:45:34

cue скрин в этом посте
Код: Выделить всё
REM GENRE Rock
REM DATE 2000
PERFORMER "Jimi Hendrix"
TITLE "The Jimi Hendrix Experience (cd 1)"
FILE "CDImage.ape" WAVE
  TRACK 01 AUDIO
    TITLE "Purple Haze"
    INDEX 01 00:00:00
  TRACK 02 AUDIO
    TITLE "Killing Floor (live)"
    INDEX 01 03:26:25
  TRACK 03 AUDIO
    TITLE "Hey Joe (live)"
    INDEX 01 06:32:20
  TRACK 04 AUDIO
    TITLE "Foxey Lady"
    INDEX 01 09:24:57
  TRACK 05 AUDIO
    TITLE "Highway Chile"
    INDEX 01 12:52:30
  TRACK 06 AUDIO
    TITLE "Hey Joe"
    INDEX 00 16:31:40
    INDEX 01 16:32:42
  TRACK 07 AUDIO
    TITLE "Title #3"
    INDEX 01 19:38:62
  TRACK 08 AUDIO
    TITLE "Third Stone From The Sun"
    INDEX 01 21:51:15
  TRACK 09 AUDIO
    TITLE "Taking Care Of No Business"
    INDEX 01 31:10:10
  TRACK 10 AUDIO
    TITLE "Here He Comes (Lover Man)"
    INDEX 01 34:52:57
  TRACK 11 AUDIO
    TITLE "Burning Of The Midnight Lamp"
    INDEX 01 37:55:45
  TRACK 12 AUDIO
    TITLE "If 6 Was 9"
    INDEX 01 39:25:67
  TRACK 13 AUDIO
    TITLE "Rock Me Baby (live)"
    INDEX 01 45:23:32
  TRACK 14 AUDIO
    TITLE "Like A Rolling Stone (live)"
    INDEX 01 48:44:27

ps/ все треки кроме последнего отображаются нормально:
Изображение
Последний раз редактировалось d1tt0 18.03.2010, 17:59, всего редактировалось 1 раз.
d1tt0
Новичок
Репутация: 0
С нами: 10 лет 6 месяцев

Сообщение #187 Zin-Uru » 18.03.2010, 19:27

А если flac+.cue, то нормально?
Zin-Uru M
Мастер
Репутация: 41
С нами: 7 лет 6 месяцев

Сообщение #188 PsichoStorM » 18.03.2010, 19:30

Перелопатил весь формат Monkey's Audio в разных режимах и так и сяк и не чего подобного нету, всё ок
Изображение
Последний раз редактировалось PsichoStorM 18.03.2010, 20:38, всего редактировалось 1 раз.
Изображение
PsichoStorM M
Бывалый
Аватара
Возраст: 36
Откуда: Moscow
Репутация: 8
С нами: 8 лет 4 месяца

Сообщение #189 d1tt0 » 18.03.2010, 21:52

Zin-Uru писал(а):А если flac+.cue, то нормально?
Да, с flac все отлично

PsichoStorM писал(а):Перелопатил весь формат Monkey's Audio в разных режимах и так и сяк и не чего подобного нету, всё ок
Изображение

а как насчет последнего трека? ведь у меня только с последним такой баг.
Последний раз редактировалось d1tt0 18.03.2010, 21:53, всего редактировалось 1 раз.
d1tt0
Новичок
Репутация: 0
С нами: 10 лет 6 месяцев

Сообщение #190 Zin-Uru » 18.03.2010, 21:59

2d1tt0, попробуйте удалить из папки components файл foo_input_monkey.dll, из папки configuration соответственно foo_input_monkey.cfg. Потом перезапустите плеер, и скачайте плагин на Monkey's Audio заново с оф. сайта www.foobar2000.org. Быть может, поможет. :)
Zin-Uru M
Мастер
Репутация: 41
С нами: 7 лет 6 месяцев

Сообщение #191 PsichoStorM » 18.03.2010, 22:04

Вообще баг странный, попробуйте поставить сборку ту что я дал в личке, если конечно не поможет совет от Zin-Uru, пробуйте, тут только методом проб, баг скажем единичного случая  :)
Изображение
PsichoStorM M
Бывалый
Аватара
Возраст: 36
Откуда: Moscow
Репутация: 8
С нами: 8 лет 4 месяца

Сообщение #192 d1tt0 » 18.03.2010, 22:10

Zin-Uru писал(а):2d1tt0, попробуйте удалить из папки components файл foo_input_monkey.dll, из папки configuration соответственно foo_input_monkey.cfg. Потом перезапустите плеер, и скачайте плагин на Monkey's Audio заново с оф. сайта www.foobar2000.org. Быть может, поможет. :)

удалил .dll-ку, но конфиг foo_input_monkey.cfg не обнаружил :)
Изображение

да. как то странно все. Попробую еще полностью удалить foobar с чисткой реестра. Потом накачу заново.
Последний раз редактировалось d1tt0 18.03.2010, 22:12, всего редактировалось 1 раз.
d1tt0
Новичок
Репутация: 0
С нами: 10 лет 6 месяцев

Сообщение #193 d1tt0 » 18.03.2010, 22:34

2PsichoStorM, заинсталлил, все ок! Большое спасибо!
d1tt0
Новичок
Репутация: 0
С нами: 10 лет 6 месяцев

Сообщение #194 PsichoStorM » 18.03.2010, 22:36

d1tt0 писал(а):2PsichoStorM, заинсталлил, все ок! Большое спасибо!
Пожалуйста  ;)
Изображение
PsichoStorM M
Бывалый
Аватара
Возраст: 36
Откуда: Moscow
Репутация: 8
С нами: 8 лет 4 месяца

Сообщение #195 Zin-Uru » 24.03.2010, 23:46

Br3tt удалил свою страничку с XChange? Интересно, зачем.
Zin-Uru M
Мастер
Репутация: 41
С нами: 7 лет 6 месяцев

Сообщение #196 Jny » 25.03.2010, 21:50

2Zin-Uru где? всё на месте вроде http://br3tt.deviantart.com/art/Xchange-360-130750625
Jny
Бывалый
Репутация: 1
С нами: 8 лет 9 месяцев

Сообщение #197 Zin-Uru » 25.03.2010, 22:29

Действительно, на месте. Странно - а я вчера не мог найти ни поиском, ни по ссылке отсюда, ни по профилю br3tt.  %)
Не знаю, что за глюки... Спасибо за ответ. :)
Zin-Uru M
Мастер
Репутация: 41
С нами: 7 лет 6 месяцев

Сообщение #198 uuuu » 26.03.2010, 23:58

и все таки немного тяжеловата сборка, можно ли как нить покоцать ее чтоб не тормозила? вот выкинул кронфлоу а что еще можно удалить без последствий? *ну* (тоесть какие плаги жрут болльше всего?)
Последний раз редактировалось uuuu 27.03.2010, 00:01, всего редактировалось 1 раз.
uuuu
Бывалый
Репутация: 0
С нами: 10 лет 10 месяцев

Сообщение #199 Zin-Uru » 27.03.2010, 00:02

От выкидывания Хронофло есть последствия - то, что окно с этой фичей будет пустым. :) Можно в принципе выкинуть еще Shpeck. Но думаю, что все это мало изменит. Таков уж XChange. Если хочется чего-нибудь столь же функционального, но "полегче", рекомендую попробовать EIKO.
Zin-Uru M
Мастер
Репутация: 41
С нами: 7 лет 6 месяцев

Сообщение #200 noise2009 » 30.03.2010, 19:01

Что я делаю не так? Изображение
noise2009
Новичок
Репутация: 0
С нами: 7 лет 6 месяцев

Пред.След.

Вернуться в Частные конфигурации