Xchange by Br3tt

Список разделов Аудиоплеер foobar2000 Частные конфигурации

Описание: Вопросы по частным конфигурациям.

Сообщение #201 PsichoStorM » 30.03.2010, 19:07

2noise2009 Теги надо прописать, выделить весь треклист ПКМ > Properties > Metadata прописать теги Artist Name, Album Title, Если это ещё и Various то и вот тут Album Artist
Последний раз редактировалось PsichoStorM 30.03.2010, 19:22, всего редактировалось 1 раз.
Изображение
PsichoStorM M
Бывалый
Аватара
Возраст: 36
Откуда: Moscow
Репутация: 8
С нами: 8 лет 2 месяца

Сообщение #202 noise2009 » 30.03.2010, 20:18

Что там писать то чтоб выглядело как в первом посте и таким же цветом? Я нуб, подробнее пожалуйста. Или может готовые настройки скините мне?
noise2009
Новичок
Репутация: 0
С нами: 7 лет 4 месяца

Сообщение #203 Zin-Uru » 30.03.2010, 20:50

2noise2009, иконка шестеренки слева вверху - это настройки. Там можно задать тему, обои, цветовую гамму и т.п.
А вообще, есть же мануал в папке skins\xchange, имя файла: Xchange 3.6.0 - Installation Manual.pdf, там все хорошо расписано и показано.
Zin-Uru M
Мастер
Репутация: 41
С нами: 7 лет 5 месяцев

Сообщение #204 PsichoStorM » 30.03.2010, 20:51

2noise2009
Заходим как описал постом выше и прописываем теги, Название артиста или группы, название альбома, год альбома, жанр
Изображение
по интерфейсу так
Изображение
Изображение
PsichoStorM M
Бывалый
Аватара
Возраст: 36
Откуда: Moscow
Репутация: 8
С нами: 8 лет 2 месяца

Сообщение #205 noise2009 » 30.03.2010, 21:24

Спасибо, почти но не то. Может надо какие-нибудь панели еще добавить?
Изображение
noise2009
Новичок
Репутация: 0
С нами: 7 лет 4 месяца

Сообщение #206 Zin-Uru » 30.03.2010, 22:00

2noise2009, для этого есть кнопка в меню Editor, после ее активации на панельке с плейлистом появятся кнопки с вертикальными и гориз. чертами, с помощью которых можно добавлять в поле плеера еще элементы - соответственно либо снизу, либо справа.
Подробно это со скриншотами показано в мануале (см. мой пред. пост, там я указал, где лежит файл). Все же откройте его и внимательно почитайте, тогда многие вопросы сразу отпадут. ;)
Zin-Uru M
Мастер
Репутация: 41
С нами: 7 лет 5 месяцев

Сообщение #207 Yastreb » 31.03.2010, 22:27

А как сделать, чтобы при использовании поиска вы перемещались к треку, а не создавался отдельный плейлист?
Yastreb
Новичок
Репутация: 0
С нами: 6 лет 11 месяцев

Сообщение #208 Zin-Uru » 31.03.2010, 22:40

Т.е. если трек уже в плейлисте находится? Тогда там есть справа от лупы такая маленькая черная стрелочка, нужно по ней щелкнуть и выбрать Search in ... -> Playlist.
Zin-Uru M
Мастер
Репутация: 41
С нами: 7 лет 5 месяцев

Сообщение #209 Yastreb » 03.04.2010, 21:20

Zin-Uru писал(а):Т.е. если трек уже в плейлисте находится? Тогда там есть справа от лупы такая маленькая черная стрелочка, нужно по ней щелкнуть и выбрать Search in ... -> Playlist.

Да, трек уже в плейлисте. Я просто обычно закидываю всю музыку в плейлист и слушаю всё скопом, поэтому тяжеловато чтото найти. Я поставил Search in ... -> Playlist вбиваю в поле название трека, княпаю энтер и всёравно создается отдельный плейлист с названием #Search Results [слово поиска] и тем треком, который я ищу. А мне нужно, чтобы я остался в этом плейлисте и меня просто перемистило на трек. Такое было в сборке Stalkera, здесь такое можно?
Yastreb
Новичок
Репутация: 0
С нами: 6 лет 11 месяцев

Сообщение #210 Zin-Uru » 03.04.2010, 22:18

2Yastreb, можно сделать так: File -> Preferences -> Media Library -> Quick Search Toolbar, вбиваете в графу Target Playlist имя своего основного плейлиста, убираете чуть ниже галочку Append...
Тогда результат будет в плейлисте с именем, нужным вам. Однако, если такой плейлист уже был, то он заменится. А как было реализовано добавление у Сталкера, не знаю. Возможно, был использован какой-то другой подобный плагин.
Zin-Uru M
Мастер
Репутация: 41
С нами: 7 лет 5 месяцев

Сообщение #211 Yastreb » 04.04.2010, 10:51

Фуууух, нашел, где это настраивается) Возле лупы стрелочка, а потом выбираем опцию "inline playlist search" ^_^
Yastreb
Новичок
Репутация: 0
С нами: 6 лет 11 месяцев

Сообщение #212 Zin-Uru » 04.04.2010, 12:45

Действительно. :) Не знал.
Zin-Uru M
Мастер
Репутация: 41
С нами: 7 лет 5 месяцев

Сообщение #213 d1tt0 » 05.04.2010, 18:57

2PsichoStorM & Zin-Uru, приветствую. "Не долго музычка играла", в общем повылазили опять эти косяки с последним треком :(
как правило в этом альбоме не отображается битрейт:
Изображение

и собственно косяк последнего трека:
Изображение

.cue:
Код: Выделить всё
PERFORMER "AC/DC"
TITLE "StarMark Greatest Hits CD1"
FILE "01. Thunderstruck.flac" WAVE
  TRACK 01 AUDIO
    TITLE "Thunderstruck"
    INDEX 01 00:00:00
  TRACK 02 AUDIO
    TITLE "Shoot to Thrill"
    INDEX 01 04:54:65
  TRACK 03 AUDIO
    TITLE "Big gun"
    INDEX 01 10:14:35
  TRACK 04 AUDIO
    TITLE "Fire Your Guns"
    INDEX 01 14:36:02
  TRACK 05 AUDIO
    TITLE "You Shook Me All Night Long"
    INDEX 01 17:31:58
  TRACK 06 AUDIO
    TITLE "Heatseeker"
    INDEX 01 21:03:72
  TRACK 07 AUDIO
    TITLE "Back in Black"
    INDEX 01 24:53:68
  TRACK 08 AUDIO
    TITLE "Who made who"
    INDEX 01 29:11:15
  TRACK 09 AUDIO
    TITLE "Hard as a Rock"
    INDEX 01 32:38:04
  TRACK 10 AUDIO
    TITLE "Hells Bells"
    INDEX 01 37:09:51
  TRACK 11 AUDIO
    TITLE "Moneytalks"
    INDEX 01 42:24:05
  TRACK 12 AUDIO
    TITLE "What Do You Do for Money Honey"
    INDEX 01 46:12:01
  TRACK 13 AUDIO
    TITLE "Are You Ready"
    INDEX 01 49:49:18
  TRACK 14 AUDIO
    TITLE "stiff upper lip"
    INDEX 01 54:01:43
  TRACK 15 AUDIO
    TITLE "Ballbreaker"
    INDEX 01 57:38:56
  TRACK 16 AUDIO
    TITLE "Safe in New York city"
    INDEX 01 62:10:68
  TRACK 17 AUDIO
    TITLE "That's the Way I Wanna Rock & Roll "
    INDEX 01 66:11:15
  TRACK 18 AUDIO
    TITLE "Flick of the Switch"
    INDEX 01 69:55:45
  TRACK 19 AUDIO
    TITLE "For Those About to Rock (We Salute You)"
    INDEX 01 73:11:10

Самое интересно, что с тем контентом где были изначально проблемы - все чудесно.


up: Вобщем методом тыка было выявлено, что для того чтобы избежать подобный баг достаточно лишь пошаманить с тэгами. Например, выделяю альбом и удаляю жанр. Жму применить. Все проблемы нет, а жанр чудесным образом восстанавливается.
Последний раз редактировалось d1tt0 05.04.2010, 19:28, всего редактировалось 1 раз.
d1tt0
Новичок
Репутация: 0
С нами: 10 лет 5 месяцев

Сообщение #214 Azzz » 05.05.2010, 22:50

Приветствую!

Есть странности с отображением обложек на бэкграунде -
Обложка на бэкграунде не отображается, если она лежит, например, в папке Covers, которая, в свою очередь, находится в папке с проигрываемым муз. файлом. При этом обложка исправно отображается в панели для каверарта и в хедере. В Display, помимо прочего, прописано "Covers\front.jpg". Кроме того, если в одной папке с проигрываемым файлом лежат несколько обложек, а среди них нет front.jpg, то на бэкграунде отображается не первая по порядку обложка, а чёрт знает какая.

То есть создаётся впечатление, будто отображение обложки на бэкграунде не зависит от директории, указанной в Display, если обложка не лежит непосредственно в папке с проигрываемым файлом. И вообще отображение на бэкграунде, получается, работает по иному алгоритму, чем тот, который задействован в отображении обложек в панели для каверарта и в хедере.

У кого-нибудь есть похожие странности? Может, нужно где-то что-то прописать, коли прописанное в Display бэкграундом игнорируется?
Azzz
Новичок
Репутация: 0
С нами: 6 лет 9 месяцев

Сообщение #215 Zin-Uru » 05.05.2010, 22:58

Azzz писал(а):То есть создаётся впечатление, будто отображение обложки на бэкграунде не зависит от директории, указанной в Display
Именно так. Особенности плагина PSS, к сожалению, пока не позволяют читать маски обложек из Display, поэтому в скрипте панели прописаны свои.
Маску можно отредактировать, кликнув ПКМ по самой верхней панельке и выбрав Splitter Settings... -> Script -> PerTrack, там ближе к началу они и задаются - думаю, разберетесь.

Есть вариант сделать, чтобы обложки везде задавались в одном месте, но для этого потребуется доп. плагин и немного пошурудить в коде. :)
Zin-Uru M
Мастер
Репутация: 41
С нами: 7 лет 5 месяцев

Сообщение #216 Azzz » 05.05.2010, 23:15

Большое спасибо, разобрался! Оказывается, до этого не там смотрел - не думал, что панелька настолько уж верхняя.  %)
Azzz
Новичок
Репутация: 0
С нами: 6 лет 9 месяцев

Сообщение #217 Jny » 21.05.2010, 10:34

у кого-нибудь остался архив с версией 3.5.2? залейте плз
Jny
Бывалый
Репутация: 1
С нами: 8 лет 8 месяцев

Сообщение #218 Flames » 19.07.2010, 15:02

можно ли как-то перекрасить эту полоску? где?

[img width=400 height=13]http://img828.imageshack.us/img828/5079/84626772.jpg[/img]
Flames
Новичок
Репутация: 0
С нами: 8 лет 2 месяца

Пред.

Вернуться в Частные конфигурации