cue файлы не открываются

Список разделов Аудиоплеер foobar2000 Есть вопрос!

Описание: У вас проблемы с foobar2000 и вам необходима помощь? Спрашивайте здесь!
Правила раздела: Одна тема — один вопрос или группа связанных вопросов. Обязательно формируйте внятный заголовок, максимально отражающий суть. Подробно описывайте проблему. Не забывайте указать версию плеера, название сборки, по возможности добавить скриншоты проблемы.

Сообщение #1 serge8 » 10.07.2017, 22:01

Здравствуйте

Проблема такая
при прослушивании flac файлов
cue файлы иногда распознаются без проблем
и сразу проигрываются
а иногда как будто не распознаются

причёи названия песен появляются
но проигрывание невозможно
так как появляется белое окошко
Playback error Invalid playback list

Короче это лечится?

Спасибо
serge8
Автор темы, Новичок
Репутация: 0
С нами: 2 месяца 10 дней

Сообщение #2 Sadovnik Muller » 11.07.2017, 08:52

Открой куе Блокнотом на компе, посмотри похожую строку:
FILE "Depeche Mode - Delta Machine 1LP 30RDT K697F.flac" WAVE (Это для примера, у тебя другое будет).
То, что выделено, должно совпадать с названием и расширением твоего файла. Если нет, измени. И посмотри кодировку шрифта файла, я всегда делаю UTF-8.
Sadovnik Muller M
Бывалый
Аватара
Репутация: 2
С нами: 1 год 3 месяца

Сообщение #3 str » 08.08.2017, 19:08

у меня такая проблема:

Код: Выделить всё
Unable to open item for playback (Unsupported format or corrupted file):
"D:\MUzzzLo\#_industrial_#_noise_#_ambient_#_power_electronics_#_drone\Aere Aeturnus\2008 - Humanity Needs No Funeral\Aere Aternus - Humanity Needs No Funeral.cue" / index: 2

все треки, кроме второго, проигрываются нормально. подскажите, что нужно сделать. под спойлером сам куй

Спойлер
REM GENRE Dark Ambient, Drone, Industrial
REM DATE 2008
REM DISCID 9110180C
REM COMMENT ExactAudioCopy v0.99pb4
PERFORMER "Aere Aeternus"
TITLE "Humanity Needs No Funeral"
FILE "Aere Aternus - Humanity Needs No Funeral.flac" WAVE
TRACK 01 AUDIO
TITLE "Ouverture - Conspiracy Of Rats"
PERFORMER "Aere Aeternus"
INDEX 01 00:00:00
TRACK 02 AUDIO
TITLE "Humanity Needs No Funeral"
PERFORMER "Aere Aeternus"
INDEX 01 02:15:00
TRACK 03 AUDIO
TITLE "Rituel Pathologique (Everything That Never Heals)"
PERFORMER "Aere Aeternus"
INDEX 01 08:22:12
TRACK 04 AUDIO
TITLE "Conjuration (Employed Towards Invocation Of Lust And Destruction)"
PERFORMER "Aere Aeternus"
INDEX 01 12:17:25
TRACK 05 AUDIO
TITLE "Life Is Nothing Else But A Parody"
PERFORMER "Aere Aeternus"
INDEX 01 19:20:16
TRACK 06 AUDIO
TITLE "Intermission - Transition To Chaos"
PERFORMER "Aere Aeternus"
INDEX 01 23:57:44
TRACK 07 AUDIO
TITLE "Brotherhood Of The 7th Day (Das Ist Der Todesking. Er Macht Da? Die Menschen Nicht Mehr Leben Wollen...)"
PERFORMER "Aere Aeternus"
INDEX 01 26:05:71
TRACK 08 AUDIO
TITLE "Final Words Before Cosmic Silence"
PERFORMER "Aere Aeternus"
INDEX 01 33:30:71
TRACK 09 AUDIO
TITLE "No God Intervention"
PERFORMER "Aere Aeternus"
INDEX 01 37:02:65
TRACK 10 AUDIO
TITLE "Hatred To My Last Breath"
PERFORMER "Aere Aeternus"
INDEX 01 42:22:59
TRACK 11 AUDIO
TITLE "Epilogue - Not Exactly Reinventing The Wheel"
PERFORMER "Aere Aeternus"
INDEX 01 47:15:05
avtomaticheskiy kalaschnikov
str M
Бывалый
Аватара
Возраст: 34
Откуда: Украина
Репутация: 15
С нами: 10 лет 8 месяцев

Сообщение #4 Sadovnik Muller » 08.08.2017, 20:26

str писал(а):все треки, кроме второго,
По куе вроде всё правильно, может, сам файл битый?
Sadovnik Muller M
Бывалый
Аватара
Репутация: 2
С нами: 1 год 3 месяца


Вернуться в Есть вопрос!