Конвертирование

Список разделов Другое Аудиоформаты

Описание: Аудиоформаты, конвертация и другие связанные вопросы

Сообщение #21 str » 12.02.2008, 10:24

такс. с бегунком играюсь, вбр так вбр. а 320 - даж не знаю, - с одной стороны привык к утверждению что это максимальное качество мп3 (не знаю так это или нет - пофиг :))), а с другой - хочу узнать - может ли фубар конвертировать в постоянный, пока не получается. но это не велика проблема :)
avtomaticheskiy kalaschnikov
str M
Бывалый
Аватара
Возраст: 33
Откуда: Украина
Репутация: 16
С нами: 10 лет 2 месяца

Сообщение #22 baralgin » 12.02.2008, 12:18

пока не получается.
так чтож там не получается то? Ладно, вот скриншот с настройками конвертера на cbr320:
Изображение
в display info - settings указал разные варианты одного и тогоже - фубар их понимает одинаково, так что можно использовать любой вариант.
baralgin
Бывалый
Репутация: 2
С нами: 9 лет 4 месяца

Сообщение #23 str » 12.02.2008, 20:46

вот косолапый )))) не заметил вариант "custom" baralgin большое спасибо  *пыво*
avtomaticheskiy kalaschnikov
str M
Бывалый
Аватара
Возраст: 33
Откуда: Украина
Репутация: 16
С нами: 10 лет 2 месяца

Сообщение #24 kukaracha » 14.02.2008, 05:12

А я ползунком ставлю максимально т.е. 245, после конвертирования в файле указывается 320.
ставишь 190 на файле всёравно 320. *ну*
Выставлял самый малый битрейт 65 - на файле 144 *даун*. А по звучанию все 65 kbps.
Пачаму так?
kukaracha
Новичок
Репутация: 0
С нами: 9 лет

Сообщение #25 meDveD » 15.02.2008, 12:49

kukaracha
потому что виндоуз не распознаёт vbr
Последний раз редактировалось meDveD 15.02.2008, 12:51, всего редактировалось 1 раз.
http://www.last.fm/user/meDveD_spb
meDveD M
Гуру
Возраст: 29
Откуда: SPb
Репутация: 52
С нами: 10 лет 2 месяца

Сообщение #26 evil » 15.02.2008, 19:54

Дык в фубаре надо смотреть!
evil M
Модератор
Возраст: 35
Репутация: 62
С нами: 10 лет 9 месяцев

Сообщение #27 Jurpils » 22.03.2008, 09:17

у меня проблема - добавляю .ape, нажимаю convert to..., а он выдает "Could not load info (Unsupported file format) from: [путь к файлу]"
v 0.9.5

при попытке прослушать также выдаёт ошибку: "Unable to open item for playback (Unsupported file format):"
Jurpils
Новичок
Репутация: 0
С нами: 8 лет 11 месяцев

Сообщение #28 evil » 22.03.2008, 10:41

Какой-либо другой плеер играет ваш АPE?
evil M
Модератор
Возраст: 35
Репутация: 62
С нами: 10 лет 9 месяцев

Сообщение #29 Jurpils » 22.03.2008, 13:22

Винампом всё играется
Jurpils
Новичок
Репутация: 0
С нами: 8 лет 11 месяцев

Сообщение #30 baralgin » 22.03.2008, 13:34

2Jurpils А плагин для monkey audio ставили? - он не входит в основной инсталятор.
baralgin
Бывалый
Репутация: 2
С нами: 9 лет 4 месяца

Сообщение #31 Jurpils » 22.03.2008, 15:33

2baralgin, спасибо большое, теперь заработало
Jurpils
Новичок
Репутация: 0
С нами: 8 лет 11 месяцев

Сообщение #32 pupsss » 02.04.2008, 13:27

Ногами не бейте, если не туда, но никак не разберусь с проблемой:
Как удалить оригиналы файлов после конвертирования? Да не из плейлиста а с диска.
Т.е. есть у меня туча папок, в ней куча файлов, весит это все 4.6Г а мне надо ужать на 4.37Г я включаю сортировку по битрейту и конвертирую самые толстые файлы, а как потом эти оригиналы удалить - не знаю, знаю только что руками в каждую папку лазить и искать нужные файлы мне лениво =)
заранее благодарю
pupsss
Новичок
Репутация: 0
С нами: 8 лет 10 месяцев

Сообщение #33 baralgin » 02.04.2008, 14:24

2pupsss Нужные(точнее уже не нужные) треки выделить(они должны остаться выделенными после конвертирования), далее в контексном меню выбираем пункт "File Operations -> Delete Files".

зы: а вообще такое кодирование не приветствуется, я бы просто удалил несколько альбомов наиболее ненужных.
baralgin
Бывалый
Репутация: 2
С нами: 9 лет 4 месяца

Сообщение #34 pupsss » 02.04.2008, 15:36

спасибо, там просто сборная солянка и альбомов как таковых нет
Файл Оперейшн --- делейт файлз у меня, кстати, небыло, пришлось переустановить фубар и врубить его в тулзах руками так как по умолчанию
он не активирован
pupsss
Новичок
Репутация: 0
С нами: 8 лет 10 месяцев

Сообщение #35 evil » 02.04.2008, 19:33

2pupsss
Каким это образом "врубить его в тулзах"?
evil M
Модератор
Возраст: 35
Репутация: 62
С нами: 10 лет 9 месяцев

Сообщение #36 baralgin » 02.04.2008, 23:10

evil писал(а):Каким это образом "врубить его в тулзах"?
Имеется в виду установщик.
baralgin
Бывалый
Репутация: 2
С нами: 9 лет 4 месяца

Сообщение #37 angry_dog » 17.04.2008, 16:31

Тоже по конвертации вопрос.Конвертирую альбом в мр3 одним файлом (Ну нужно так)),не получаю после конвертации разбивки по файлам.Создаю из контекстного меню файл куе - эффект ноль.Как сконвертировать в мр3 так,чтобы при воспроизведении фубар видел треки?
angry_dog M
Бывалый
Аватара
Возраст: 51
Откуда: Россия
Репутация: 4
С нами: 10 лет 4 месяца

Сообщение #38 evil » 17.04.2008, 17:00

2angry_dog
MP3 не поддерживает встроенные CUE. Поэтому нужно сперва сделать CUE файл, а потом пережать оригинал в одиночный файл MP3. Естественно, потом подправить название файла в CUE.
evil M
Модератор
Возраст: 35
Репутация: 62
С нами: 10 лет 9 месяцев

Сообщение #39 mgz » 28.04.2008, 14:26

2angry_dog
Нужно было выбрать не Convert to... , а Convert To Album Image with Cuesheets or Chapters.

2evil
И он (плеер) сам создаст CUE на основе полученного образа.

Вот проделал только-что. Выделил 4 трека и сконвертил в мр3+cue
Код: Выделить всё
Within Temptation - The Silent Force.mp3.cue
Within Temptation - The Silent Force.mp3
Код: Выделить всё
REM GENRE Rock
REM DATE 2005
PERFORMER "Within Temptation"
TITLE "The Silent Force"
FILE "Within Temptation - The Silent Force.mp3" WAVE
  TRACK 01 AUDIO
    TITLE "It's The Fear"
    INDEX 01 00:00:00
  TRACK 02 AUDIO
    TITLE "Somewhere"
    INDEX 01 04:06:63
  TRACK 03 AUDIO
    TITLE "A Dangerous Mind"
    INDEX 01 08:20:26
  TRACK 04 AUDIO
    TITLE "The Swan Song"
    INDEX 01 12:36:66
RME HDSP 9632 > DynAudio BM5A II / Audio-Technica ATH-AD900
mgz M
Гуру
Аватара
Возраст: 37
Откуда: Украина, Киев
Репутация: 57
С нами: 10 лет 9 месяцев

Сообщение #40 maximus_lt » 08.05.2008, 23:57

Мужики, у меня к вам 2 вопроса:
1. Формат AIFF поддерживает теги ?
2. Как фубаром перегнать в Apple Losseless ? (у меня нет в настройках такого формата, а кодека я ненашёл *ну*)

Заранее, спасибо.
Headphone: Jecklin Float Model Two, Audio-Technica ATH-ESW9A, MB Quart QP400, ТДС-3
DAC|HeadAmp: Antelope Audio Zodiac
Speakers: Adam Audio Artist 5
maximus_lt
Новичок
Аватара
Репутация: 0
С нами: 8 лет 9 месяцев

Пред.След.

Вернуться в Аудиоформаты