многоканальный звук

Список разделов Аудиоплеер foobar2000 Есть вопрос!

Описание: У вас проблемы с foobar2000 и вам необходима помощь? Спрашивайте здесь!
Правила раздела: Одна тема — один вопрос или группа связанных вопросов. Обязательно формируйте внятный заголовок, максимально отражающий суть. Подробно описывайте проблему. Не забывайте указать версию плеера, название сборки, по возможности добавить скриншоты проблемы.

Сообщение #41 NikosColev » 20.08.2020, 21:22

Как ни открою настройки звука в Win10, там всегда... разное:
Спойлер
Изображение
Подскажите, плз, это её нормальное поведение или их можно/нужно как-то/где-то зафиксировать?

Периодически, как в данном случае, ОС сама решает что у меня 7.1, я такого нигде не конфигурировал...
У меня 5.1 - расчехлил тылы недавно...

По какой причине 5.1 дорожка этого isoшника SACD приходит на ресивер 2.0 РСМ по HDMI WASAPI?
Спойлер
Изображение
"Человек живет и движется среди того что видит, но видит только то что способен осознать" (с) Поль Валери
NikosColev
Бывалый
Аватара
Репутация: 1
С нами: 14 лет 3 месяца

Сообщение #42 Azaza » 20.08.2020, 21:36

NikosColev писал(а):По какой причине 5.1 дорожка этого isoшника SACD приходит на ресивер 2.0 РСМ по HDMI WASAPI?
Только этого? А с другими всё нормально?
Аудиофилия - это болезнь,поражающая головной мозг.Набор профилактически-превентивных мер против аудиофилии крайне скуден - техническое образование, умение мыслить логически и наличие здравого смысла.
Azaza M
Мастер
Аватара
Репутация: 208
С нами: 4 года

Сообщение #43 NikosColev » 20.08.2020, 21:44

Azaza писал(а):Только этого? А с другими всё нормально?
Нет, не только, - покопался в имеющихся SACD .iso 5.1 - везде 2.0 выводит...
"Человек живет и движется среди того что видит, но видит только то что способен осознать" (с) Поль Валери
NikosColev
Бывалый
Аватара
Репутация: 1
С нами: 14 лет 3 месяца

Сообщение #44 Azaza » 20.08.2020, 21:52

NikosColev писал(а):Нет, не только, - покопался в имеющихся SACD .iso 5.1 - везде 2.0 выводит
И, наверное, любой многоканал, а не только SACD?
Аудиофилия - это болезнь,поражающая головной мозг.Набор профилактически-превентивных мер против аудиофилии крайне скуден - техническое образование, умение мыслить логически и наличие здравого смысла.
Azaza M
Мастер
Аватара
Репутация: 208
С нами: 4 года

Сообщение #45 NikosColev » 20.08.2020, 21:58

Azaza писал(а):И, наверное, любой многоканал, а не только SACD?
Нет, .dts без вопросов - 5.1.

Кстати, я так понимаю плеер ISO SACD читает как обычный архив? - не пойму почему их не монтируют, и не читают с привода, разве так не проще? - попробовал подмонтировать, штатными ср-вами ОС не монтируется...
"Человек живет и движется среди того что видит, но видит только то что способен осознать" (с) Поль Валери
NikosColev
Бывалый
Аватара
Репутация: 1
С нами: 14 лет 3 месяца

Сообщение #46 Azaza » 20.08.2020, 22:05

NikosColev писал(а):Нет, .dts без вопросов - 5.1.
логика.jpg

Естественно. dts Вы ж без декодирования выводите. А, например, FLAC?

Добавлено спустя 1 минуту 42 секунды:
NikosColev писал(а):Кстати, я так понимаю плеер ISO SACD читает как обычный архив?
Нет.

NikosColev писал(а):Не пойму почему их не монтируют, и не читают с привода, разве так не проще? - попробовал подмонтировать, штатными ср-вами ОС не монтируется...
Потому и не монтируют, что они не монтируются.
Аудиофилия - это болезнь,поражающая головной мозг.Набор профилактически-превентивных мер против аудиофилии крайне скуден - техническое образование, умение мыслить логически и наличие здравого смысла.
Azaza M
Мастер
Аватара
Репутация: 208
С нами: 4 года

Сообщение #47 NikosColev » 20.08.2020, 22:18

Azaza писал(а):А, например, FLAC?
У меня таких и не было кажется - скачал, проверил, да, выводит 2.0.
Stream #0:0: Audio: flac, 192000 Hz, 5.1, s32 (24 bit)

Добавлено спустя 3 минуты 31 секунду:
Azaza писал(а):не монтируют, что они не монтируются.
Странно...
"Человек живет и движется среди того что видит, но видит только то что способен осознать" (с) Поль Валери
NikosColev
Бывалый
Аватара
Репутация: 1
С нами: 14 лет 3 месяца

Сообщение #48 Azaza » 20.08.2020, 22:50

Что выставлено на вкладке дополнительно? И на вкладке Enhancements?
nYrRV00.png
Аудиофилия - это болезнь,поражающая головной мозг.Набор профилактически-превентивных мер против аудиофилии крайне скуден - техническое образование, умение мыслить логически и наличие здравого смысла.
Azaza M
Мастер
Аватара
Репутация: 208
С нами: 4 года

Сообщение #49 NikosColev » 20.08.2020, 23:00

Azaza писал(а):Что выставлено на вкладке дополнительно? И на вкладке Enhancements?
Спойлер
Изображение
Изображение
Изображение
Изображение
Изображение
Изображение
"Человек живет и движется среди того что видит, но видит только то что способен осознать" (с) Поль Валери
NikosColev
Бывалый
Аватара
Репутация: 1
С нами: 14 лет 3 месяца

Сообщение #50 Azaza » 20.08.2020, 23:22

Если на первой картинке ткнуть правой кнопкой мыши в Philips FTV, появится контекстное меню. В нём есть "Настроить динамики" ?
Аудиофилия - это болезнь,поражающая головной мозг.Набор профилактически-превентивных мер против аудиофилии крайне скуден - техническое образование, умение мыслить логически и наличие здравого смысла.
Azaza M
Мастер
Аватара
Репутация: 208
С нами: 4 года

Сообщение #51 NikosColev » 20.08.2020, 23:28

Azaza писал(а):Если на первой картинке ткнуть правой кнопкой мыши в Philips FTV, появится контекстное меню. В нём есть "Настроить динамики" ?
Да, но вот не пойму почему-то они перестали настраиваться...
Спойлер
Изображение
Звук проигрывается только во фронтах...

Добавлено спустя 17 минут:
Перезагрузил, - эффекта нет. Попробовал виндовую диагностику:
Спойлер
Изображение
Изображение
В настройках при этом ничего не изменилось и с выводом 5.1 так же.

Добавлено спустя 27 минут 25 секунд:
Переставил драйвера, - фигвам(((
"Человек живет и движется среди того что видит, но видит только то что способен осознать" (с) Поль Валери
NikosColev
Бывалый
Аватара
Репутация: 1
С нами: 14 лет 3 месяца

Сообщение #52 NikosColev » 21.08.2020, 20:46

Думал, что это самый нубский вопрос из возможных, - однако, коллективный разум нигде мне с ним помочь не может))) - на хоботе народ спорит должен ли ТВ в св-вах ОС вместо ресивера отображаться...

Добавлено спустя 21 минуту 7 секунд:
NikosColev писал(а):Да, но вот не пойму почему-то они перестали настраиваться...
Предположу что и не настраивались никогда ранее в такой конфигурации. Наверное, когда по аналогу/оптике звук выводил тогда ОС видела ресивер как ресивер и не тупила. Но тогда ещё Win10 не изобрели...
"Человек живет и движется среди того что видит, но видит только то что способен осознать" (с) Поль Валери
NikosColev
Бывалый
Аватара
Репутация: 1
С нами: 14 лет 3 месяца

Сообщение #53 Azaza » 21.08.2020, 21:13

Вы же можете ради эксперимента отключить ТВ от ресивера и посмотреть, изменится ли что-нибудь.
Аудиофилия - это болезнь,поражающая головной мозг.Набор профилактически-превентивных мер против аудиофилии крайне скуден - техническое образование, умение мыслить логически и наличие здравого смысла.
Azaza M
Мастер
Аватара
Репутация: 208
С нами: 4 года

Сообщение #54 NikosColev » 21.08.2020, 22:20

Azaza писал(а):Вы же можете ради эксперимента отключить ТВ от ресивера и посмотреть, изменится ли что-нибудь.
Отключил, подключился удалённо - кроме смены значка никаких изменений нет...
Flac 5.1 приходит на ресивер 2.0. Настройка 5.1 каналов в ОС так-же не проходит - звук выводят только фронты.
Вложения
2020.08.21_22.05.53_793x801_foobar2000.png
2020.08.21_22.04.09_793x801_foobar2000.png
2020.08.21_22.02.25_740x549_foobar2000.png
2020.08.21_21.57.29_669x458_rundll32.png
2020.08.21_21.57.03_669x458_rundll32.png
2020.08.21_21.56.45_669x458_rundll32.png
2020.08.21_21.55.56_472x458_rundll32.png
"Человек живет и движется среди того что видит, но видит только то что способен осознать" (с) Поль Валери
NikosColev
Бывалый
Аватара
Репутация: 1
С нами: 14 лет 3 месяца

Сообщение #55 Azaza » 21.08.2020, 22:50

На кнопку далее здесь нажимали? Там дальше можно включать/отключать центр и тылы.
Uxr1EOP.png

Ивот ещё что нашёл гугл:
Для настройки 5.1 звука на Windows необходимо перейти во вкладку «Устройства воспроизведения» (правый клик по иконке громкости в трее Windows). Далее выделяем нужные нам динамики и кликаем по кнопке «Настройки» в левом нижнем углу. Далее, и это очень важно, необходимо выбрать режим 7.1 звука!, после чего нажать «далее» и снять галку с «боковой пары» динамиков. Потом просто прокликиваем «далее-далее» и выходим из окна настроек. Звук 5.1 активирован, поздравляю.
Не знаю, насколько соответствует истине.http://djvan.ru/offtop/problema-5-1-zvuka-na-windows/
Последний раз редактировалось Azaza 21.08.2020, 23:03, всего редактировалось 1 раз.
Аудиофилия - это болезнь,поражающая головной мозг.Набор профилактически-превентивных мер против аудиофилии крайне скуден - техническое образование, умение мыслить логически и наличие здравого смысла.
Azaza M
Мастер
Аватара
Репутация: 208
С нами: 4 года

Сообщение #56 NikosColev » 21.08.2020, 22:58

Azaza писал(а):На кнопку далее здесь нажимали?
Неоднократно нажимал(((
Проделал и это шаманство, выбрав 7.1. - правда у меня галки на боковых динамиках при этом нет:
Спойлер
Изображение
Но и 5.1. от этого не появилось.
Что за фигня такая...

Добавлено спустя 2 минуты 32 секунды:
Ну, на всякий случай))) попробовал её поставить, потом снять - нет, не выходит каменный цветок:
Спойлер
Изображение

Добавлено спустя 4 минуты 12 секунд:
Я вот уже думаю, м.б. с кабелями поиграться...
"Человек живет и движется среди того что видит, но видит только то что способен осознать" (с) Поль Валери
NikosColev
Бывалый
Аватара
Репутация: 1
С нами: 14 лет 3 месяца

Сообщение #57 vladj » 21.08.2020, 23:31

Ехал на одном из своих мини писи на вин 10, (не сток, ОС устанавливал сам), ехал на приставке виндовой с монитором Pipo, ехал на планшете с вин 10. Везде интеловский чипсет и встроенный процессор. Что везде было одинаковым, так это не ставил драйвера от реалтека на эти железки. При установке драйверов на встроенное видео (от 7 до 10) в систему попутно устанавливается драйвер "Аудио Intel(R) для дисплеев", он затем виден в диспетчере устр-св. Вот он-то и позволяет полностью обойти виндовый микшер. Всех эти настройки 5.1, 7.1 и т.д. при этом не при делах . У меня в настройках динамиков стерео, частота 44100, а ресивер без проблем принимает и декодирует любой тяжёлый звук. С компа по hdmi должен выйти RAW, сырой не обработанный поток аудио, а уж делить его на форматы стерео, 5.1, 7.1 дело ресивера. С планшета выводил на телевизор и ресивер видео концерты с многоканальным DTS 24/96000, открывал и воспроизводил образы исошники DVD Audio. Нет с этим проблем на любой железке с вин 7-10 если не затаскивать в систему лишние драйверы.
HTPC Termaltake, eGlobal i5-7200, Asrock Beebox J3160, Onkyo 525E, цап SMSL, фронт Yamaha 8900.
vladj M
Гуру
Аватара
Откуда: Пермский край
Репутация: 399
С нами: 10 лет 7 месяцев

Сообщение #58 NikosColev » 21.08.2020, 23:39

vladj писал(а):Нет с этим проблем на любой железке с вин 7-10 если не затаскивать в систему лишние драйверы.
Предлагаете снести аудио устр-ва и перезагрузить?
Мама не юная у меня - Intel DH55HC. Кажется с последней переустановкой я даже на чипсет не ставил, ОС сама все необходимое подтягивает.

Добавлено спустя 1 час 36 минут:
В общем, Realtek я вероятно сам накорячил, и он действительно, абсолютно ни к чему... Снёс и больше он не появлялся. Но... ничему это не помогает - без подключения ТВ снес дрова, отключил лишнее (имхо), - нет 5.1 как ни крути.

Порция злоключений в картинках, на всякий случай:
Спойлер
Изображение
Изображение
Изображение
Изображение
Изображение
Изображение
Изображение

Добавлено спустя 33 минуты 13 секунд:
Решил пойти от обратного, время-то идёт, вдруг для ALC888S что придумали, но не похоже:
Изображение
"Человек живет и движется среди того что видит, но видит только то что способен осознать" (с) Поль Валери
NikosColev
Бывалый
Аватара
Репутация: 1
С нами: 14 лет 3 месяца

Сообщение #59 Sadovnik Muller » 22.08.2020, 08:46

NikosColev писал(а):Я вот уже думаю, м.б. с кабелями поиграться...
Простите что встреваю, но если вы передаёте многоканал по hdmi, то не всякий кабель на это способен.
Лет пять назад также долбился, пока мне не посоветовали сменить кабель. Там что-то от спецификации зависело... :think:
Sadovnik Muller M
Бывалый
Аватара
Репутация: 12
С нами: 4 года 3 месяца

Сообщение #60 NikosColev » 22.08.2020, 09:11

Sadovnik Muller, наоборот, спасибо большое, больше мнений - лучше)))
А я и не шутил. Когда покупал, со спецификации и начинал выбор вроде как... Но он у меня длиннющий, что в этом деле бывает проблематично. Однако, природа глюков заставляет меня сомневаться, что она в кабелях...

Добавлено спустя 33 минуты 44 секунды:
Редкостно правильный никнейм, кстати)))

Добавлено спустя 4 часа 13 минут:
Скрестил ужа с ежом и получил на ресивере 5.1 PCM
Stream #0:0: Audio: dts (DTS) ([1][0][0][0] / 0x0001), 44100 Hz, 5.1(side), fltp, 1411 kb/s
Спойлер
На ресивере РСМ 5.1:
Изображение
На ресивере DTS 5.1:
Изображение
Что не надо foo_spdifer с foo_input_dts мешать понятно, но результат их работы забавный - РСМ 5.1
А во второй сборке ни того, ни другого, отдала ресиверу как есть DTS 5.1.

Добавлено спустя 31 минуту 28 секунд:
А ещё 2 сборка звучит явно легче, не так плотно на любых форматах - для сравнения и полез голую смотреть.
Не могу понять какой компонент может влиять на это, DSP ни там, ни там...
Разница примерно как между CD и 24/192, но не так сильно различимая...
"Человек живет и движется среди того что видит, но видит только то что способен осознать" (с) Поль Валери
NikosColev
Бывалый
Аватара
Репутация: 1
С нами: 14 лет 3 месяца

Пред.След.

Вернуться в Есть вопрос!

Кто сейчас на форуме (по активности за 10 минут)

Сейчас этот раздел просматривают: 1 гость