Проблемы с cue и ape

Список разделов Другое Аудиоформаты

Описание: Аудиоформаты, конвертация и другие связанные вопросы

Сообщение #1 Wild_Cucumber » 16.01.2007, 22:04

Здравствуйте.
При открытии *.cue файла в левом нижнем углу появляется надпись stopped и ничего не происходит (список композиций не появляется), а при открытии *ape выдается надпись "Unable to open item for playback (Unsupported file format)". В чем тут дело, ведь раньше все нормально было, и в настройках я не ковырялся.
Wild_Cucumber
Автор темы, Новичок
Репутация: 0
С нами: 10 лет 11 месяцев

Сообщение #2 Mishail » 17.01.2007, 03:11

foo_input_monkey.dll в плагинах присутсвует?
Mishail M
Мастер
Аватара
Возраст: 38
Репутация: 5
С нами: 11 лет 7 месяцев

Сообщение #3 Wild_Cucumber » 17.01.2007, 16:24

нет, не нашел. но раньше ведь все читалось...
Wild_Cucumber
Автор темы, Новичок
Репутация: 0
С нами: 10 лет 11 месяцев

Сообщение #4 romik555 » 21.04.2008, 03:16

Такая же проблема с .cue файлами, хотя .ape открываются.
foo_input_monkey.dll присутствует.

То ли лыжи не едут,......

Версия 0.9.5b6
Последний раз редактировалось romik555 21.04.2008, 03:19, всего редактировалось 1 раз.
romik555
Новичок
Репутация: 0
С нами: 9 лет 7 месяцев

Сообщение #5 mgz » 21.04.2008, 06:45

2romik555
Кинь текст CUE сюда.
RME HDSP 9632 > DynAudio BM5A II / Audio-Technica ATH-AD900
Nexus 5 > Avantree Clipper > Sennheiser IE 4
mgz M
Гуру
Аватара
Возраст: 38
Откуда: Украина, Киев
Репутация: 71
С нами: 11 лет 7 месяцев

Сообщение #6 romik555 » 21.04.2008, 10:54

2mgz

REM GENRE Pop
REM DATE 1990
REM DISCID 990ABC0B
REM COMMENT "ExactAudioCopy v0.99pb3"
PERFORMER "A-Ha"
TITLE "East Of The Sun, West Of The Moon"
FILE "A-Ha - East Of The Sun, West Of The Moon.wav" WAVE
  TRACK 01 AUDIO
    TITLE "Crying In The Rain"
    PERFORMER "A-Ha"
    INDEX 01 00:00:00
  TRACK 02 AUDIO
    TITLE "Early Morning"
    PERFORMER "A-Ha"
    INDEX 01 04:25:10
  TRACK 03 AUDIO
    TITLE "I Call Your Name"
    PERFORMER "A-Ha"
    INDEX 00 07:23:20
    INDEX 01 07:23:52
  TRACK 04 AUDIO
    TITLE "Slender Frame"
    PERFORMER "A-Ha"
    INDEX 00 12:16:05
    INDEX 01 12:17:47
  TRACK 05 AUDIO
    TITLE "East Of The Sun"
    PERFORMER "A-Ha"
    INDEX 00 15:59:43
    INDEX 01 15:59:47
  TRACK 06 AUDIO
    TITLE "Sycamore Leaves"
    PERFORMER "A-Ha"
    INDEX 00 20:46:67
    INDEX 01 20:47:10
  TRACK 07 AUDIO
    TITLE "Waiting For Her"
    PERFORMER "A-Ha"
    INDEX 00 26:08:56
    INDEX 01 26:08:60
  TRACK 08 AUDIO
    TITLE "Cold River"
    PERFORMER "A-Ha"
    INDEX 00 30:57:33
    INDEX 01 30:57:67
  TRACK 09 AUDIO
    TITLE "The Way We Talk"
    PERFORMER "A-Ha"
    INDEX 00 35:37:52
    INDEX 01 35:39:22
  TRACK 10 AUDIO
    TITLE "Rolling Thunder"
    PERFORMER "A-Ha"
    INDEX 00 37:10:06
    INDEX 01 37:10:30
  TRACK 11 AUDIO
    TITLE "(Seemingly) Nonstop July"
    PERFORMER "A-Ha"
    INDEX 00 42:50:34
    INDEX 01 42:53:55


Некоторые открываются, большинство нет. До этого сидел на сборке Foobar2000.Plus!.v0.8.3.Build.201.Final.M-Group, там всё открывалось. Вот решил попробовать v0.9.........
Последний раз редактировалось romik555 21.04.2008, 11:06, всего редактировалось 1 раз.
romik555
Новичок
Репутация: 0
С нами: 9 лет 7 месяцев

Сообщение #7 mgz » 21.04.2008, 16:57

2romik555

Код: Выделить всё
FILE "A-Ha - East Of The Sun, West Of The Moon.wav" WAVE
нужно
Код: Выделить всё
FILE "A-Ha - East Of The Sun, West Of The Moon.ape" WAVE

Если этого будет не достаточно - то попробуй сменить имя на что-то короче, типа sound.ape
Ну и переименуй сам файл.
RME HDSP 9632 > DynAudio BM5A II / Audio-Technica ATH-AD900
Nexus 5 > Avantree Clipper > Sennheiser IE 4
mgz M
Гуру
Аватара
Возраст: 38
Откуда: Украина, Киев
Репутация: 71
С нами: 11 лет 7 месяцев

Сообщение #8 romik555 » 22.04.2008, 00:04

2MGZ

Спасибо за помощь.

Переименовал .wav в /ape - список песен появляется в Foobar но не играет. Дальнейшие действия...

Если этого будет не достаточно - то попробуй сменить имя на что-то короче, типа sound.ape
Ну и переименуй сам файл.


тоже ни к чему не привели...  *sorry*

Я думаю опять пробовать старые версии пока в новой все глюки не уберут
romik555
Новичок
Репутация: 0
С нами: 9 лет 7 месяцев

Сообщение #9 mgz » 22.04.2008, 00:43

2romik555

Стоп
Переименовал .wav в /ape
... это ты файл переименовал ? Нужно в тексте CUE подправить на ape.

Я думаю опять пробовать старые версии пока в новой все глюки не уберут
Я много дел имею с лосслессом, и по несколько раз в неделю сталкиваюсь с CUE+APE... всегда менял текст в CUE и никогда небыло проблем. Свою сборку обновляю сразу, как только бывают доступны обновления. Вот на данный момент 0.9.5.2 - сейчас специально проверил на этом образе:
MC Ren - Shock Of The Hour.ape
MC Ren - Shock Of The Hour.cue
В тексте подправил путь к файлу:
Код: Выделить всё
REM GENRE Hip-Hop
REM DATE 1993
PERFORMER "MC Ren"
TITLE "Shock Of The Hour"
FILE "MC Ren - Shock Of The Hour.wav" WAVE
  TRACK 01 AUDIO
    TITLE "11:55"
    PERFORMER "MC Ren"
    ISRC 000000000000
    PREGAP 00:00:05
    INDEX 00 00:00:00
    INDEX 01 00:00:05
...
на
Код: Выделить всё
...
FILE "MC Ren - Shock Of The Hour.ape" WAVE
...

... всё играет и жмётся.


Выдержка из списков компонентов:
Код: Выделить всё
Core.dll v0.9.5.2 [] - foobar2000 core
foo_input_monkey.dll v2.1.2 [13 April 2007] - Monkey's Audio decoder
RME HDSP 9632 > DynAudio BM5A II / Audio-Technica ATH-AD900
Nexus 5 > Avantree Clipper > Sennheiser IE 4
mgz M
Гуру
Аватара
Возраст: 38
Откуда: Украина, Киев
Репутация: 71
С нами: 11 лет 7 месяцев

Сообщение #10 romik555 » 22.04.2008, 13:06

2mgz

Откатил на v.0.9.5.3 и всё заработало!!!  Может просто глюк был...

В некоторых .cue в разных треках указан INDEX 01 и INDEX 00 / INDEX 01:

TRACK 02 AUDIO
    TITLE "You Wanted More"
    PERFORMER "a-ha"
    INDEX 01 04:17:54
  TRACK 03 AUDIO
    TITLE "Forever Not Yours"
    PERFORMER "a-ha"
    INDEX 00 07:58:41
    INDEX 01 07:58:45


Имеет ли это какое-нибудь значение?

И ещё вопрос: слушаю музыку в наушниках с лаптопа через Creative X-Mod подключенный через USB. В v0.8xxxx в настройках ставил WaveOut и X-Mod как Output Device и при измемении громкости на X-Mod также двигался и ползунок в Foobar'e. Сейчас всего этого нет, только Output Device где поставил X-Mod.

Может какие-нибудь plugin ещё нужны?

Спасибо за помощь.
romik555
Новичок
Репутация: 0
С нами: 9 лет 7 месяцев

Сообщение #11 mgz » 22.04.2008, 19:01

2romik555
В некоторых .cue в разных треках указан INDEX 01 и INDEX 00 / INDEX 01
INDEX 00 07:58:41
INDEX 01 07:58:45

Вот когда настанет 07:58:41, то настанет 3-й трек, но его время будет не 0:00, а -0:04. Ну а в 07:58:45 - будет уже играть музыка (если тишина попала именно в эту паузу) с 0:00.

Откатил на v.0.9.5.3 и всё заработало!!!  Может просто глюк был...
Я склоняюсь к версии, что глюк. А ты поставь (в другую папку) пустую сборку из новой версии 0.9.5.2, дакинь туда плагин для АРЕ и попробуй запустить тотже CUE - неужели не заиграет ?

Может какие-нибудь plugin ещё нужны?
Незнаю.
RME HDSP 9632 > DynAudio BM5A II / Audio-Technica ATH-AD900
Nexus 5 > Avantree Clipper > Sennheiser IE 4
mgz M
Гуру
Аватара
Возраст: 38
Откуда: Украина, Киев
Репутация: 71
С нами: 11 лет 7 месяцев

Сообщение #12 meDveD » 22.04.2008, 19:54

romik555 писал(а):Откатил на v.0.9.5.3 и всё заработало!!!
угу, и давно вышла эта версия?

и толку откатов к старым версия никаких, с cue у фубара давно всё в порядке
http://www.last.fm/user/meDveD_spb
meDveD M
Гуру
Возраст: 30
Откуда: SPb
Репутация: 52
С нами: 11 лет

Сообщение #13 romik555 » 22.04.2008, 23:41

2MGZ

Спасибо !!!   *пыво*
romik555
Новичок
Репутация: 0
С нами: 9 лет 7 месяцев


Вернуться в Аудиоформаты