Cue Sheet

Список разделов Другое Оффтопик

Описание: Для общения на свободные темы.

Сообщение #1 Nik » 03.08.2007, 00:46

Здравствуйте!
Люди, скажите пожалуйста, для чего нужен компонент Cue Sheet? Что он делает?
All in all you're just another brick in the wall
Nik
Автор темы, Новичок
Аватара
Репутация: 0
С нами: 11 лет 10 месяцев

Сообщение #2 Sma11erM1nd » 13.08.2007, 05:08

если ты про foo_cuesheet_creator, то для создания Сuesheet Изображение
Sma11erM1nd M
Бывалый
Возраст: 29
Откуда: СПБ
Репутация: 0
С нами: 12 лет 8 месяцев

Сообщение #3 phobos » 13.04.2008, 21:03

а для чего вообще служит cuesheet? В википедии не слишком понятно написано
«Cue sheet», или «файл cue», — это файл с метаданными, которые описывают раскладку треков CD или DVD диска. Файлы cue хранятся как plain text и, как правило, имеют расширение ".cue". Теперь они поддерживаются многими приложениями авторинга оптических дисков и мультимедиа-проигрвателями.
Объясните плиз простым языком
ИзображениеИзображениеИзображение
phobos
Бывалый
Аватара
Репутация: 0
С нами: 11 лет 2 месяца

Сообщение #4 mgz » 14.04.2008, 00:28

2phobos
Встречал наверно "комплекты" из CUE+APE (или FLAC) ?
Так вот. Сам музыкальный файл (который APE или FLAC или ещё-какой) содержит в себе весь альбом (сингл) - т.е. точная копия Audio CD. Если открыть его в любом плеере то он будет играть без проблем, но не будет разметки на треки - будет словно один длинный трек. А вот сама разметка - это и есть CUE-файл. В нём указан путь к музыкальному файлу и разметка по минутам:секундам, также в каждом Индексе (треке) прописана информация (теги - артист, альбом, трек, год и т.д.).

Код: Выделить всё
REM GENRE Electronic
REM DATE 2005
PERFORMER "Various"
TITLE "Break Beat & Electro"
REM REPLAYGAIN_ALBUM_GAIN -8.31 dB
REM REPLAYGAIN_ALBUM_PEAK 1.073487
FILE "sound.ogg" WAVE
  TRACK 01 AUDIO
    TITLE "Electro Fly"
    PERFORMER "Klonhertz"
    REM REPLAYGAIN_TRACK_GAIN -9.58 dB
    REM REPLAYGAIN_TRACK_PEAK 1.073487
    INDEX 01 00:00:00
  TRACK 02 AUDIO
    TITLE "Fascinating Rhythm (Open Air Mix)"
    PERFORMER "Bhangra Knights"
    REM REPLAYGAIN_TRACK_GAIN -7.11 dB
    REM REPLAYGAIN_TRACK_PEAK 1.027769
    INDEX 01 07:03:25
В этом примере:
REM GENRE Electronic - это %genre%, REM - значит не основной параметр
REM DATE 2005 - это %date%
PERFORMER "Various" - это %album artist%
TITLE "Break Beat & Electro" - это %album%
REM REPLAYGAIN_ALBUM_GAIN -8.31 dB это %__replaygain_album_gain%
REM REPLAYGAIN_ALBUM_PEAK 1.073487 - это %__replaygain_album_peak%
FILE "sound.ogg" WAVE - это ссылка на муз.файл (лежат в одной папке с CUE), WAVE - обязательный параметр и только такой!
  TRACK 02 AUDIO
    TITLE "Fascinating Rhythm (Open Air Mix)"
    PERFORMER "Bhangra Knights"
    REM REPLAYGAIN_TRACK_GAIN -7.11 dB
    REM REPLAYGAIN_TRACK_PEAK 1.027769
    INDEX 01 07:03:25
Ну а это параметры второго трека, который начинается с положения 07 мин 03 сек 25 мсек
RME HDSP 9632 > DynAudio BM5A II / Audio-Technica ATH-AD900
Nexus 5 > Avantree Clipper > Sennheiser IE 4
mgz M
Гуру
Аватара
Возраст: 39
Откуда: Украина, Киев
Репутация: 73
С нами: 13 лет 1 месяц

Сообщение #5 phobos » 18.04.2008, 11:42

2mgz, спасибо за исчерпывающий ответ
а можно самому создать из альбома с мп3 один файл с cue-sheet`ом? Если да то как?
ИзображениеИзображениеИзображение
phobos
Бывалый
Аватара
Репутация: 0
С нами: 11 лет 2 месяца

Сообщение #6 mgz » 18.04.2008, 11:59

2phobos
а можно самому создать из альбома с мп3 один файл с cue-sheet`ом?
Уточни, у тебя твой альбом из разных файлов ?
Если да - то тебе будет необходимо сливать (заниматься гадким транскодом) их в один. Это я тебе крайне не рекомендую - убьешь свои файлы по качеству.

Если да то как?
Если всё-таки будет желание пожать - то foobar тебе в руки :)
1. Закидывай свой альбом в плеер
2. Выделяй нужные треки
3. Прав.кн.мыши в менюшки ищи Convert / Convert to Album Images with Cuesheet or Chapters
4. Укажешь в какой формат (это дело должно быть настроено заранее и кодеры все присутствовать) и сохранишь
5. В итоге будут у тебя мр3+cue

Пока тебе писал - проверил. Выделил три средних трека в мр3 из списка и проделал вышеописанное. Получил мр3+cue.
Вот такой получился CUE.
Код: Выделить всё
REM GENRE Other
REM DATE 2001
PERFORMER "Apparat"
TITLE "Multifunktionsebene"
FILE "Apparat - Multifunktionsebene.mp3" WAVE
  TRACK 01 AUDIO
    TITLE "Error404"
    INDEX 01 00:00:00
  TRACK 02 AUDIO
    TITLE "Multifocus"
    INDEX 01 06:06:56
  TRACK 03 AUDIO
    TITLE "Aspirin"
    INDEX 01 10:36:61
RME HDSP 9632 > DynAudio BM5A II / Audio-Technica ATH-AD900
Nexus 5 > Avantree Clipper > Sennheiser IE 4
mgz M
Гуру
Аватара
Возраст: 39
Откуда: Украина, Киев
Репутация: 73
С нами: 13 лет 1 месяц

Сообщение #7 shishkin123 » 29.09.2008, 13:42

mgz писал(а):Если всё-таки будет желание пожать - то foobar тебе в руки
1. Закидывай свой альбом в плеер
2. Выделяй нужные треки
3. Прав.кн.мыши в менюшки ищи Convert / Convert to Album Images with Cuesheet or Chapters
4. Укажешь в какой формат (это дело должно быть настроено заранее и кодеры все присутствовать) и сохранишь
5. В итоге будут у тебя мр3+cue
2mgz
я так тоже сделал, правда с flac треками, но это неважно и получил 1 файл со встроенным cue, потом долго думал что дальше, но всё-таки нашёл опцию edit cuesheet, оттуда скопировал содержимое и сам создал новый текстовый файл. в итоге имеем файл образа со встроенным cue и отдельно cue. как-то это всё нетехнично, нельзя получать чистый образ + cue сразу же?
shishkin123
Новичок
Репутация: 0
С нами: 10 лет 8 месяцев

Сообщение #8 mgz » 29.09.2008, 17:43

2shishkin123
Ну ситуация с FLAC именно такая (как примерно и Vorbis OGG) - не создаётся отдельный CUE.
В FLAC он пишется в тег, а в OGG создаётся мульти-поточная структура файла.

в итоге имеем файл образа со встроенным cue и отдельно cue.
В окне Edit Cuesheet есть опция Enable embedded cue sheet on this file. Вот после копирования содержимого CUE и создания текста можно эту галочку снять.
Других способов я не знаю.
RME HDSP 9632 > DynAudio BM5A II / Audio-Technica ATH-AD900
Nexus 5 > Avantree Clipper > Sennheiser IE 4
mgz M
Гуру
Аватара
Возраст: 39
Откуда: Украина, Киев
Репутация: 73
С нами: 13 лет 1 месяц

Сообщение #9 shishkin123 » 29.09.2008, 22:37

mgz писал(а):В окне Edit Cuesheet есть опция Enable embedded cue sheet on this file. Вот после копирования содержимого CUE и создания текста можно эту галочку снять.
точно, как я сам не допёр, спасибо!
shishkin123
Новичок
Репутация: 0
С нами: 10 лет 8 месяцев

Сообщение #10 alm » 27.02.2009, 02:34

господа, не хочу открывать новую тему, продолжу лучше здесь. есть аре файл с cue, в котором File "название файла.wav" не могу поменять на .аре , как следствие, фубар не показывает отдельные треки. в самом куе часть информации латиницей, часть абракадаброй (он создавался в юникоде?). в чем может быть ошибка (при открытие куе в ЕАС пишет - ошибка в строке номер..как раз та строка, которая File "название файла.wav" ) и как ее исправить? да, при попытке сохранения изменений, внесенных через блокнот, пишет "не удается создать файл.. далее путь.." и совет "проверьте правильность пути и имени файла" . вообще, при внесении любых изменений в этот куй история повторяется. если есть идеи, пожалуйста, распишите подробно. я начинающий чайник в пользовании фубаром %)
alm
Новичок
Репутация: 0
С нами: 10 лет 3 месяца

Сообщение #11 Сергеич » 04.04.2009, 19:11

2alm
Снять с файла параметр "Только чтение" и отредактировать в блокноте
Сергеич
Новичок
Репутация: 0
С нами: 10 лет 2 месяца

Сообщение #12 bioann » 26.05.2009, 15:07

как его включить? скопировал в компоненты, а в Конверте (по правому клику мыши) его нет.. как активировать сие?
bioann M
Новичок
Аватара
Возраст: 36
Откуда: Vault City 13
Репутация: 0
С нами: 10 лет 3 месяца

Сообщение #13 Narekaci » 03.06.2009, 11:05

А не подскажет ли кто нибудь,как создать cue в фубаре ,если его изначально нет,для потрекового флака?
Narekaci M
Новичок
Откуда: Санкт-Петербург
Репутация: 1
С нами: 10 лет 4 месяца


Вернуться в Оффтопик