Нужна помощь: не могу воспроизвести некоторые образы через CUE!

Список разделов Другое Архив

Описание: Архив старых тем

Сообщение #1 ivanhoe » 21.07.2006, 22:45

Некоторые образы CD не воспоизводятся, например: имею
file.ccd
file.cue
file.img
file.sub
запускаю FILE.CUE, получаю следующие экраны ошибок:
1. Unable to open item for playback (Error parsing cuesheet: expected WAVE, MP3 or AIFF, got : "BINARY" (line 1)):
"F:\A\ROCK\The Beatles\Get Back 2nd Mix\GB2ndMix.cue"
2. Could not load info (Error parsing cuesheet: expected WAVE, MP3 or AIFF, got : "BINARY" (line 1)) from:
"F:\A\ROCK\The Beatles\Get Back 2nd Mix\GB2ndMix.cue"
Чего-то не хватает из плагинов или я что-то не так делаю?
ivanhoe
Автор темы
Репутация: 0
С нами: 15 лет 2 месяца

Сообщение #2 Warchief » 21.07.2006, 23:47

2ivanhoe

Запости полное содержание файла .cue(открывать блокнотом) . Судя по всему либо это просто ошибка в 1 строке cue, либо это образ диска, а  не .cue фаил разметки для музыкальных файлов.
Warchief
Репутация: 0
С нами: 15 лет 4 месяца

Сообщение #3 Warchief » 21.07.2006, 23:53

2ivanhoe

Файл разметки должен иметь примерно такой вид:
Код: Выделить всё
LABEL "OM Records"
DATE "2006"
GENRE "House"
ALBUM "OM: Miami 2006"
PERFORMER "Various"
TITLE "OM: Miami 2006"
FILE "VA - OM-Miami.mp3" MP3
TRACK 01 AUDIO
    TITLE "Livin' At Night"
    PERFORMER "Chuck Love"
INDEX 01 00:00:00
TRACK 02 AUDIO
    TITLE "Don't You Love Me?"
    PERFORMER "Andy Caldwell"
INDEX 01 06:36:00
TRACK 03 AUDIO
    TITLE "Just Groovin' (main Room Madness Mix)"
    PERFORMER "Groove Junkies"
INDEX 01 12:24:00
TRACK 04 AUDIO
    TITLE "Salsa Pico"
    PERFORMER "Uneaq"
INDEX 01 18:27:00
TRACK 05 AUDIO
    TITLE "Miracles (Kiko Navarro Afroterraneo Mix)"
    PERFORMER "Afro-Mystik"
INDEX 01 25:08:00
TRACK 06 AUDIO
    TITLE "Didn't Mean To Turn You On (Justin Martin Mix)"
    PERFORMER "Colette"
INDEX 01 32:56:00
TRACK 07 AUDIO
    TITLE "Only You (Johnny Fiasco Dub)"
    PERFORMER "Uneaq"
INDEX 01 37:59:00
TRACK 08 AUDIO
    TITLE "Magnificent (Fred Everything Mix)"
    PERFORMER "Iz & Diz"
INDEX 01 43:47:00
TRACK 09 AUDIO
    TITLE "Studio C"
    PERFORMER "Fred Everything"
INDEX 01 50:35:00
TRACK 10 AUDIO
    TITLE "I Wish I Could Be Beautiful"
    PERFORMER "Rithma"
INDEX 01 55:53:00
TRACK 11 AUDIO
    TITLE "Soul Symphony"
    PERFORMER "Chuck Love"
INDEX 01 62:19:00
TRACK 12 AUDIO
    TITLE "Puttin' It Out There"
    PERFORMER "PC Synergy"
INDEX 01 67:51:00
TRACK 13 AUDIO
    TITLE "Rise (RocaSound House Mix)"
    PERFORMER "Samantha James"
INDEX 01 73:24:00


ivanhoe:file.ccd
file.cue
file.img
file.sub

Файлы file.ccd,file.img,file.sub это образы дисков, а не файлы разметки. Эти образы надо либо на болванки записать или смонтировать в виртуальный cd/dvd-rom, используя например alcohol120% или daemon tools.
Warchief
Репутация: 0
С нами: 15 лет 4 месяца

Сообщение #4 skipyrich » 22.07.2006, 00:23

Был дан исчерпывающий ответ, я лишь добавлю: бить канделябром тех, кто делает образы audio cd тулзинами, для этого не предназначенными...
Помни!: пережатие из (wav|mp3|mpc|ogg|aac|...) в (mp3|mpc|ogg|aac|...) при любых битрейтах ухудшает качество
skipyrich M
Возраст: 47
Откуда: Москва
Репутация: 11
С нами: 15 лет 4 месяца

Сообщение #5 ivanhoe » 22.07.2006, 04:06

2Warchief:
Содержание файла CUE:
FILE "GB2ndMix.img" BINARY
  TRACK 1 AUDIO
  FLAGS DCP
  INDEX 1 00:00:00
  TRACK 2 AUDIO
  FLAGS DCP
  INDEX 1 03:03:61
  TRACK 3 AUDIO
  FLAGS DCP
  INDEX 1 03:38:52
  TRACK 4 AUDIO
  FLAGS DCP
  INDEX 1 03:59:33
  TRACK 5 AUDIO
  FLAGS DCP
  INDEX 1 08:39:48
  TRACK 6 AUDIO
  FLAGS DCP
  INDEX 1 12:43:58
  TRACK 7 AUDIO
  FLAGS DCP
  INDEX 1 15:29:54
  TRACK 8 AUDIO
  FLAGS DCP
  INDEX 1 18:44:27
  TRACK 9 AUDIO
  FLAGS DCP
  INDEX 1 22:46:48
  TRACK 10 AUDIO
  FLAGS DCP
  INDEX 1 25:32:45
  TRACK 11 AUDIO
  FLAGS DCP
  INDEX 1 28:59:25
  TRACK 12 AUDIO
  FLAGS DCP
  INDEX 1 29:36:19
  TRACK 13 AUDIO
  FLAGS DCP
  INDEX 1 33:42:34
  TRACK 14 AUDIO
  FLAGS DCP
  INDEX 1 37:24:21
  TRACK 15 AUDIO
  FLAGS DCP
  INDEX 1 39:09:54
  TRACK 16 AUDIO
  FLAGS DCP
  INDEX 1 42:37:04
  TRACK 17 AUDIO
  FLAGS DCP
  INDEX 1 43:15:43
  TRACK 18 AUDIO
  FLAGS DCP
  INDEX 1 45:06:66
  TRACK 19 AUDIO
  FLAGS DCP
  INDEX 1 47:58:35
  TRACK 20 AUDIO
  FLAGS DCP
  INDEX 1 63:35:04
  TRACK 21 AUDIO
  FLAGS DCP
  INDEX 1 67:31:57
ivanhoe
Автор темы
Репутация: 0
С нами: 15 лет 2 месяца

Сообщение #6 mgz » 22.07.2006, 08:23

2 Warchief
Я лишь добавлю, что по стандарту нужно писать не
Код: Выделить всё
FILE "VA - OM-Miami.mp3" MP3
а вот так
Код: Выделить всё
FILE "VA - OM-Miami.mp3" WAVE
В данном случае WAVE указывает на звуковое содержание референсного файла.

2 ivanhoe
Ну а вот это уже точно не звуковой файл
Код: Выделить всё
FILE "GB2ndMix.img" BINARY
RME HDSP 9632 > DynAudio BM5A II / Audio-Technica ATH-AD900
Nexus 5 > Avantree Clipper > Sennheiser IE 4
mgz M
Аватара
Возраст: 41
Откуда: Украина, Киев
Репутация: 73
С нами: 15 лет 4 месяца


Вернуться в Архив