Ошибки в библиотеке

Список разделов Аудиоплеер foobar2000 Есть вопрос!

Описание: У вас проблемы с foobar2000 и вам необходима помощь? Спрашивайте здесь!
Правила раздела: Одна тема — один вопрос или группа связанных вопросов. Обязательно формируйте внятный заголовок, максимально отражающий суть. Подробно описывайте проблему. Не забывайте указать версию плеера, название сборки, по возможности добавить скриншоты проблемы.

Сообщение #1 rrn » 25.10.2014, 02:13

Для начала я чайник, хочу попробовать Foobar2000. До этого пользовал JRiver Media Center. Где есть всё из коробки. В интернете много хорошего про Foobar2000. Поставил, установил ASIO, KS, WASAPI без проблем. Звук вроде бы прозрачнее. Решил пользоваться. Беда в том, что это конструктор, подробное описание собранное в единое целое не нашел, кусочки информации на форумах, неудобно. На вашем сайте есть отзывы, в которых у людей не хватает времени, терпения добывать информацию и они уходят на плееры из коробки, где есть все.

У меня вопрос. Есть диск К:\ на котором расположены папки (допустим Enigma и др.)в папке Enigma расположены папки, в которых находятся файлы касающиеся одного диска (CUE, FLAC, фото) В конфигурации библиотеки следующее см.рис. В библиотеке есть папки в которых выделены треки, есть папки один общий трек в который слиты треки этого диска, нет папок см.рис. А это CUE из папки, которой вообще нет в библиотеке
REM GENRE Pop
REM DATE 2005
REM DISCID A30A2D0B
REM COMMENT ExactAudioCopy v1.0b1
PERFORMER "Савичева Юлия"
TITLE "Высоко"
REM REPLAYGAIN_ALBUM_GAIN -9.14 dB
REM REPLAYGAIN_ALBUM_PEAK 1.000000
B tot
FILE "Савичева Юлия - Высоко.flac" wave
TRACK 01 AUDIO
TITLE "Высоко"
REM REPLAYGAIN_TRACK_GAIN -8.54 dB
REM REPLAYGAIN_TRACK_PEAK 1.000000
INDEX 01 00:00:00
TRACK 02 AUDIO
TITLE "Корабли"
REM REPLAYGAIN_TRACK_GAIN -8.52 dB
REM REPLAYGAIN_TRACK_PEAK 1.000000
INDEX 00 04:52:41
INDEX 01 04:54:40
TRACK 03 AUDIO
TITLE "Отпусти меня"
REM REPLAYGAIN_TRACK_GAIN -9.53 dB
REM REPLAYGAIN_TRACK_PEAK 1.000000
INDEX 00 09:01:53
INDEX 01 09:03:52
TRACK 04 AUDIO
TITLE "Стоп"
REM REPLAYGAIN_TRACK_GAIN -7.70 dB
REM REPLAYGAIN_TRACK_PEAK 1.000000
INDEX 00 12:30:43
INDEX 01 12:32:42

Если я что не так делаю, подскажите как правильно. Спасибо.
И еще как выглядит PlayList выше данного CUE
Вложения
Библ4.PNG
Библ4.PNG (7.19 КБ) Просмотров: 922
Библ2.PNG
Библ2.PNG (10.64 КБ) Просмотров: 922
Библ1.PNG
rrn
Автор темы
Репутация: -6
С нами: 6 лет 11 месяцев

Сообщение #2 macarych » 25.10.2014, 03:06

В поле Exclude должно быть чисто, надо стереть выражение *.CUE
macarych M
Аватара
Репутация: 414
С нами: 12 лет 8 месяцев

Сообщение #3 rrn » 25.10.2014, 10:49

macarych,
Спасибо за помощь, все нормально. *.CUE было установлено по умолчанию. Думал, что все будет нормально. Еще раз спасибо.
rrn
Автор темы
Репутация: -6
С нами: 6 лет 11 месяцев


Вернуться в Есть вопрос!