Foobar2000 не поддерживает большие CUE для миксов?

Список разделов Аудиоплеер foobar2000 Есть вопрос!

Описание: У вас проблемы с foobar2000 и вам необходима помощь? Спрашивайте здесь!
Правила раздела: Одна тема — один вопрос или группа связанных вопросов. Обязательно формируйте внятный заголовок, максимально отражающий суть. Подробно описывайте проблему. Не забывайте указать версию плеера, название сборки, по возможности добавить скриншоты проблемы.

Сообщение #21 Yurnikos » 15.01.2015, 15:00

RoDion:не помогло данное решение!!! заменить окончание строки на WAVE
это не "решение" это _стандарт куй-файла_
Обратил внимание ? :
Yurnikos: у ОБРАБАТЫВАЕМОГО ФАЙЛА, расширение, случайно/специально не изменял? - Опять будет ошибка:
EAC проверяет действительный формат файла!

И почитать про стандарт куй-файла

PERFORMER "Simon Patterson & John Askew"
TITLE "Live @ Open Up 100 at RED Nightclub in Toronto, Canada (2014-12-31)"
FILE "Simon_Patterson_and_John_Askew_-_Live_at_Open_Up_100_RED_Nightclub_Toronto_31-12-2014.mp3" WAVE
TRACK 01 AUDIO
PERFORMER "Dosem"
TITLE "Ellipsis"
INDEX 01 00:00:00
Поменять местами стрОкИ "TITLE" и "PERFORMER"
Спойлер
Правильно будет:
TRACK 101 AUDIO
TITLE "Имя трека"
PERFORMER "Артист" (возможно отсутствие строки)
INDEX 01 409:18:00
и такой порядок д.б. в каждом треке от 1-го до последнего

и сколько строк выставлено в Настройках >Advanced >Display> Properties dialog> Always preload...N tracks : ?
версию фу обновил?

Добавлено спустя 17 минут 13 секунд:
Yurnikos:_стандарт куй-файла_

Спойлер
REM GENRE Pop
REM DATE 1900
REM COMMENT рождённый ползать - не летает!
PERFORMER "для миксов VA или Various Artist)"
TITLE "Имя файла-микса"
FILE "Имя файла-микса.mp3" WAVE
TRACK 01 AUDIO
TITLE "Имя трека"
PERFORMER "Artist 1"
INDEX 01 00:00:00
TRACK 02 AUDIO
TITLE "Имя трека"
PERFORMER "Artist 2"
INDEX 01 02:27:00
TRACK 03 AUDIO
TITLE "Имя трека"
PERFORMER "Artist 3"
INDEX 01 04:45:00
TRACK 04 AUDIO
TITLE "Имя трека"
PERFORMER "Artist 1"
INDEX 01 06:35:00

Добавлено спустя 6 часов 9 минут:
Yurnikos:FILE "Simon_Patterson_and_John_Askew_-_Live_at_Open_Up_100_RED_Nightclub_Toronto_31-12-2014.mp3
Чего-то не верится, что "микс" - одним файлом - на почти 7 часов!
Ошибка в строке 3 - скорее, ещё неверное расширение обрабатываемого файла (не *.mp3 !),
случаем, не тот AAC ? ? ?
Yurnikos
Гость

Сообщение #22 RoDion » 16.01.2015, 10:12

Yurnikos,

с расширением все нормально, на всякий случай кодировал в xrecode так же ошибка, остальное позже попробую
RoDion
Автор темы
Репутация: 0
С нами: 6 лет 10 месяцев

Сообщение #23 Yurnikos » 16.01.2015, 11:37

RoDion:с расширением все нормально, на всякий случай кодировал в xrecode так же ошибка
К МОЕМУ СОЖАЛЕНИЮ и МОЕМУ НЕЗНАНИЮ ПРОБЛЕМЫ, выяснил, путём "ночного бдения" :
фубар и АИМП создают таки, куй-файл с большим 99-ти числом треков, но отказываются от "парсинга",
уходя в ошибку:
EAC - "ошибка в строке, например, 500" - это, как раз строка "TRACK 100 AUDIO";
фубар просто не читает/парсит куй более 99 треков, но создать может и более 99;
АИМП - создаёт (но с большим количеством ошибок!) И читает/парсит куй-файл с более 100 треков (проверил со 110 треками формата *.mp3).
Так, что пробуй свой куй-файл c "АИМП"-ом, но после коррекции ВСЕХ ОШИБОК
Yurnikos
Гость

Сообщение #24 RoDion » 17.01.2015, 12:14

Yurnikos, разрезал на две части всего то делов
RoDion
Автор темы
Репутация: 0
С нами: 6 лет 10 месяцев

Сообщение #25 Relogin » 08.01.2016, 15:15

Не скажу, что похожий случай, но тоже высыпало ошибку в строке ..
Вот, что было:
TITLE "Dirty Job (7" Version)"
Заменил кавычки в 7" на 2а апострофа
TITLE "Dirty Job (7'' Version)"
лист сжевался в фубаре отлично.
Что сказать про замены типа файла после кавычек и имени файла.. Лучше, чтобы они были указаны одинаковым с расширением файла (пример ваш - Toronto_31-12-2014.mp3" MP3). Иначе, в строке состояния фубара, вместо цифр битрейта и частоты дискретизации увидите "?"
Удачи!
Relogin
Гость

Сообщение #26 MrGrey » 20.01.2016, 01:27

Relogin:Заменил кавычки в 7" на 2а апострофа

:cry:
Ясен пень, кавычки это элемент синтаксиса - TITLE "TITLE", а с вашими кавычками получается TITLE "TIT"LE"
MrGrey M
Аватара
Откуда: Минск
Репутация: 22
С нами: 14 лет 11 месяцев

Сообщение #27 delta22 » 23.01.2016, 14:02

По диагонали прочитал, но скажите пожалуйста, а в чeм проблема, религия не позволяет 2, 3 , да хоть 10000000 куев использовать вместо одного огромного?!
Кстати ограничение 100 траков в КУЮ существует в Красной книге, а Питер (создатель фубара) держится принципа от стандарта не отходить. Я когда-то поднимал вопрос на "глобальном форуме", правда не по этой теме - получил от него категоричный ответ - НЕТ FOOBAR НИКОГДА НЕ БУДЕТ ОТХОДИТЬ ОТ СТАНДАРТОВ - ЧИТАЙТЕ AUDIO-CD RED BOOK!
delta22
Репутация: 0
С нами: 5 лет 8 месяцев

Пред.

Вернуться в Есть вопрос!