как создать .cue-файл или .m3u-файл из образа image (FLAC)

Список разделов Аудиоплеер foobar2000 Есть вопрос!

Описание: У вас проблемы с foobar2000 и вам необходима помощь? Спрашивайте здесь!
Правила раздела: Одна тема — один вопрос или группа связанных вопросов. Обязательно формируйте внятный заголовок, максимально отражающий суть. Подробно описывайте проблему. Не забывайте указать версию плеера, название сборки, по возможности добавить скриншоты проблемы.

Сообщение #1 ViktorRush » 28.06.2015, 12:50

Добрый день!
Подскажите, пожалуйста, можно ли при помощи Foobar2000 или специальных приложений к нему создать из образа image (FLAC) .cue-файл или .m3u-файл для использования его как плей-лист в Foobar2000, при этом, сохранив образ, не разрезая его на треки?
Или это можно сделать при помощи какого-то другого софта?
Заранее благодарю!
ViktorRush
Автор темы
Репутация: 0
С нами: 6 лет 2 месяца

Сообщение #2 kgena_ua » 28.06.2015, 15:00

ViktorRush,
Convert - Converter Setup.
Безымянный4.png
I.m.UR5EQF.
квартет на миллион долларов
kgena_ua M
Аватара
Возраст: 57
Откуда: Украина, Днепр
Репутация: 493
С нами: 8 лет 5 месяцев

Сообщение #3 Yurnikos » 28.06.2015, 15:38

ViktorRush:создать из образа image (FLAC) .cue-файл или .m3u-файл для использования его как плей-лист в Foobar2000
Как правило, обычно, к образу (одним файлом), прилагается либо отдельный, либо встроенный, готовый *.cue-файл,
вот его и нужно загружать в плейлист фу.
В случае отсутствия куй-файла, его следует создать.
Спецпроги, конечно, есть, а именно: Sound Forge, EAC, кои имеют некоторые недостатки . . .
Самый простой способ, вручную (правда, требующий времени и навыков) -
Запускаем файл альбома, меж треков останавливаем, запоминаем время в формате ММ:СС:доли СС,
берём "заготовку" куй-файла (открыв ея в блокноте), вставляем (без ОШИБОК !!!) полученные времена, получаем нужный
текстовый файл, переименовываем оного в *.cue и вуаля, готово. Я так и поступаю . . .
Загрузив полученный куй-файл в фу, можно, средствами фу, сохранить в формате нестандартного *.m3u.
Стандартный *.m3u-файл с помощью фу несколько затруднительно (нужен плагин).
К *.m3u-файлам я "давно потерял интерес", в силу ограниченности оных в возможностях.

"kgena_ua"
Бы я этого твоего совета не понял !
Yurnikos
Гость

Сообщение #4 kgena_ua » 28.06.2015, 15:52

Yurnikos:совета не понял
Yurnikos, Создастся файл wav и cue. wav удалить.
I.m.UR5EQF.
квартет на миллион долларов
kgena_ua M
Аватара
Возраст: 57
Откуда: Украина, Днепр
Репутация: 493
С нами: 8 лет 5 месяцев

Сообщение #5 vladj » 28.06.2015, 18:34

Куя нет, образ не порежется конвертером на треки. Проще в инете найти готовый куй....
ну или вручную заделать, как выше Yurnikos написал, имхо.
HTPC Termaltake, eGlobal i5-7200, Asrock Beebox J3160, Onkyo 525E, цап SMSL, фронт Yamaha 8900.
vladj M
Аватара
Откуда: Пермский край
Репутация: 422
С нами: 11 лет 7 месяцев

Сообщение #6 ViktorRush » 28.06.2015, 21:37

У меня есть куй от этого рипа, но он только восстанавливает образ при записи через ImgBurn, а в Foobar2000 не играет, прыгает через треки.
Я догадываюсь, что умные люди такие куи как-то правят вручную, но как, это для меня загадка.
Вот оригинальный куй:
REM GENRE Rock
REM DATE 1973
REM DISCID 810AF80B
REM COMMENT "ExactAudioCopy v0.99pb1"
PERFORMER "David Bowie"
TITLE "Aladdin Sane"
FILE "David Bowie - Aladdin Sane.flac" WAVE
TRACK 01 AUDIO
TITLE "Watch That Man"
PERFORMER "David Bowie"
INDEX 01 00:00:00
TRACK 02 AUDIO
TITLE "Aladdin Sane (1913-1938-197?)"
PERFORMER "David Bowie"
INDEX 00 04:25:67
INDEX 01 04:30:10
TRACK 03 AUDIO
TITLE "Drive-In Saturday"
PERFORMER "David Bowie"
INDEX 01 09:37:70
TRACK 04 AUDIO
TITLE "Panic In Detroit"
PERFORMER "David Bowie"
INDEX 00 14:09:22
INDEX 01 14:14:10
TRACK 05 AUDIO
TITLE "Cracked Actor"
PERFORMER "David Bowie"
INDEX 00 18:40:62
INDEX 01 18:41:57
TRACK 06 AUDIO
TITLE "Time"
PERFORMER "David Bowie"
INDEX 00 21:41:47
INDEX 01 21:43:42
TRACK 07 AUDIO
TITLE "The Prettiest Star"
PERFORMER "David Bowie"
INDEX 00 26:57:55
INDEX 01 26:58:20
TRACK 08 AUDIO
TITLE "Let's Spend the Night Together"
PERFORMER "David Bowie"
INDEX 00 30:25:42
INDEX 01 30:29:22
TRACK 09 AUDIO
TITLE "The Jean Genie"
PERFORMER "David Bowie"
INDEX 00 33:36:02
INDEX 01 33:39:40
TRACK 10 AUDIO
TITLE "Lady Grinning Soul"
PERFORMER "David Bowie"
INDEX 00 37:46:15
INDEX 01 37:46:22
ViktorRush
Автор темы
Репутация: 0
С нами: 6 лет 2 месяца

Сообщение #7 Yurnikos » 28.06.2015, 22:06

ViktorRush:есть куй от этого рипа, но он только
. . .
Имхо, тебе проверить надо наличие "галки" в меню фу "Playback - Random" - если установлена - удалить,
проверить "Playback - Order" - выбрать нужный вариант (кроме "Random"!!) - чтобы выключить
это : "прыгает через треки"
Yurnikos
Гость

Сообщение #8 vladj » 28.06.2015, 22:20

Если куй пристутствует и тем более образ записывается, то с ним всё нормально, из исключений в двух местах CUE убран ?
HTPC Termaltake, eGlobal i5-7200, Asrock Beebox J3160, Onkyo 525E, цап SMSL, фронт Yamaha 8900.
vladj M
Аватара
Откуда: Пермский край
Репутация: 422
С нами: 11 лет 7 месяцев

Сообщение #9 ViktorRush » 28.06.2015, 22:32

из исключений в двух местах CUE убран ?
Нет. Может в этом вся проблема? Как это сделать?
ViktorRush
Автор темы
Репутация: 0
С нами: 6 лет 2 месяца

Сообщение #10 vladj » 28.06.2015, 23:17

Ну хоть-бы из любопытства зашёл в настройки и там походил по опциям. Ну да...на аглицком непонятно... но если в паре мест
встретится напоминание о куе, то перевести пару слов в онлайн переводчике. Окажется, что файлы куе отмечены в исключениях,
т.е. фубар с ними не работает. Убрать в Media Libary (exclude - оставь там пусто), и в Shell Integation то-же самое, убери из исключений.
Yurnikos:вот его и нужно загружать в плейлист фу.
В жизни ни разу куе не загружал, просто щёлкаю по альбомам с артистом или одному альбому и всё падает в плейлист, потому не всё
так однозначно при загрузке музыки в плейлист. Кто-то так, кто-то посложней любит.
HTPC Termaltake, eGlobal i5-7200, Asrock Beebox J3160, Onkyo 525E, цап SMSL, фронт Yamaha 8900.
vladj M
Аватара
Откуда: Пермский край
Репутация: 422
С нами: 11 лет 7 месяцев

Сообщение #11 Yurnikos » 29.06.2015, 02:24

ViktorRush:а в Foobar2000 не играет, прыгает через треки
с "кривым" куй файлом не "прыгает", уходит в ошибку . . .
"прыгает" по трекам-по порядку, если не может найти файлы, указанные в плейлисте или в куй-файле . . .
"так называемые" "Dead Items".
Меню фу "Edit - Remove dead items" = треки удаляются - оно самое и есть

Добавлено спустя 6 минут 16 секунд:
vladj,
vladj:что файлы куе отмечены в исключениях,
т.е. фубар с ними не работает
любые файлы, указанные в "Shell Integration" как исключения, загружаются в плейлист непосредственно,
но не папкой(ми)

Добавлено спустя 7 минут 10 секунд:
Yurnikos:с "кривым" куй файлом не "прыгает",
на "кривизну" куй-файла указывает отсутствие времени длины ПОСЛЕДНЕГО трека
Yurnikos
Гость

Сообщение #12 Yurnikos » 29.06.2015, 07:02

Yurnikos:из образа image (FLAC) ... или .m3u-файл для использования его как плей-лист
ИМХО, неудачная мысль, бо *.m3u-файл может указывать только на полный абсолютный путь к "образу image (FLAC)"-файлу,
а для проигрывания нужно получить время начала каждого трека, получить имена треков и исполнителей (для сборников), на что *.m3u-файл для альбома одним файлом (имхо) неспособен . . .
вдобавок, имена треков и исполнителей плейером (включая "выньАмп") ИГНОРИРУЮТСЯ - заменяются тна имена треков и исполнителей из непосредственно "обрабатываемого" файла(ов), что
(для меня, например, совершенно неприемлемо)
Yurnikos
Гость

Сообщение #13 guest » 30.06.2015, 03:22

ViktorRush:а в Foobar2000 не играет, прыгает через треки.
фубар 1.3.6? из ченджлога на 1.3.7: "Fixed FLAC seeking regression from the previous version."
Обновитесь. Уже 1.3.8, кстати, доступна.

Yurnikos:на "кривизну" куй-файла указывает отсутствие времени длины ПОСЛЕДНЕГО трека
фигня. Это случается, если фубар увидел CUE файл, а файла образа ещё нет. Решение - Tagging - Reload info from files.
guest
Гость

Сообщение #14 Yurnikos » 30.06.2015, 08:20

guest:фигня. Это случается, если фубар увидел CUE файл, а файла образа ещё нет
вовсе не "фигня"!, но ! спорить с многоуважаемым "guest" смысла не вижу, потому как, вручную!, многократно, делал куй-файлы для мрз-шников, находящихся на раздаче и раздражающих меня
своими "кривыми" тегами . . .
ЗЫ. Единственно, обновляю фу РЕГУЛЯРНО!
Yurnikos
Гость

Сообщение #15 guest » 30.06.2015, 15:41

А какая связь между кривыми тегами и отсутствием длиеы у последнего трека?
guest
Гость

Сообщение #16 Yurnikos » 30.06.2015, 19:59

guest:какая связь между кривыми тегами и отсутствием длиеы у последнего трека
Дык, никакой :wink: само собой
Yurnikos
Гость


Вернуться в Есть вопрос!