skip silence

Список разделов foobar2000 Плагины

Описание: Все о плагинах, компонентах, расширениях

Сообщение #1 Degen1103 » 02.10.2008, 15:18

Имеет место проблема с некоторыми АРЕ: при воспроизведении через CUE возникают безобразные разрывы, тогда как сплошной АРЕ играет гладенько и без пауз.
Также при смене МР-3 треков может возникать разрыв, хотя они должны сменяться без паузы.

Установил foo_dsp_skip_silence.dll, поставил 0,2 сек в настройках - не помогло.

Главное - непонятно, откуда берутся разрывы в сплошном АРЕ?!! М.б., быстродействия не хватает? Фубар на С, музыка на Е... В чём проблема-то?
Последний раз редактировалось Degen1103 02.10.2008, 15:19, всего редактировалось 1 раз.
Degen1103
Автор темы
Аватара
Репутация: 0
С нами: 15 лет 11 месяцев

Сообщение #2 mgz » 03.10.2008, 02:41

2Degen1103
Ну текст CUE покажи хоть.
Дефрагментация может помочь.
А если откинуть этот ДСП из цепочки - проблема не решается ?
mgz M
Аватара
Откуда: Украина, Киев
Репутация: 73
С нами: 18 лет

Сообщение #3 Degen1103 » 03.10.2008, 13:37

Нет, без плагина те же самые разрывы (я и установил-то его в надежде от них избавиться). Проблема только в двух файлах, причём одного исполнителя - м.б., как-то кривовато записано? Но АРЕ-то гладкие! CUE с виду самые обычные:

REM GENRE Ethnic
REM DATE 1993
REM DISCID 540ACF09
REM COMMENT "ExactAudioCopy v0.99pb3"
PERFORMER "Phil Thornton & Steven Cragg"
TITLE "Tibetan Horn"
FILE "Phil Thornton & Steven Cragg - Tibetan Horn.ape" WAVE
  TRACK 01 AUDIO
    TITLE "Bon (A Clash Of Cymbals)"
    PERFORMER "Phil Thornton & Steven Cragg"
    INDEX 01 00:00:00
  TRACK 02 AUDIO
    TITLE "Through The 'Valley Of The Flowers'"
    PERFORMER "Phil Thornton & Steven Cragg"
    INDEX 01 02:24:45
  TRACK 03 AUDIO
    TITLE "Bon (Reprise)"
    PERFORMER "Phil Thornton & Steven Cragg"
    INDEX 01 04:31:17
и т.д.

PERFORMER "Phil Thornton"
TITLE "Tibetan Meditation"
FILE "Tibetan Meditation.ape" WAVE
  TRACK 01 AUDIO
    TITLE "Meditation"
    PERFORMER "Phil Thornton"
    INDEX 01 00:00:00
  TRACK 02 AUDIO
    TITLE "A welcome return"
    PERFORMER "Phil Thornton"
    INDEX 01 04:58:35
  TRACK 03 AUDIO
    TITLE "The view from the pass"
    PERFORMER "Phil Thornton"
    INDEX 01 14:29:70
и т.д.

А вот, напр, лог:

Отчёт EAC об извлечении, выполненном 15. марта 2008, 15:19 для диска:
Phil Thornton / Tibetan Meditation

Дисковод: ASUS DRW-1608P3S Adapter: 4 ID: 0
Режим чтения: Точный (C2: нет, Точный поток: да, Отключение кэша: да)
Коррекция смещения при чтении: 48
Экстрачтение областей Lead-in и Lead-out : Нет

Выходной формат: Внутренние WAV-операции
44.100 Гц; 16 бит; стерео

Другие параметры:
Заполнение пропущенных сэмплов тишиной : Да
Удаление блоков с тишиной в начале и конце : Нет
'Родной' Win32-интерфейс для Win NT/2000

Статус диапазона и ошибки
Выбранный диапазон
Имя файла D:\NewAge\11111\Meditation\Phil Thornton\Tibetan meditation\Tibetan Meditation.wav

Пиковый уровень 92.4 %
Качество диапазона 100.0 %
CRC E6497E0D
Копирование... OK

Ошибок не произошло

Конец отчёта

В принципе, проще всего убрать куй и слушать сплошной АРЕ, но вдруг...
Degen1103
Автор темы
Аватара
Репутация: 0
С нами: 15 лет 11 месяцев


Вернуться в Плагины