foobar2000 FAQ

Список разделов Аудиоплеер foobar2000 Общая информация

Описание: Общее обсуждение по аудиоплееру foobar2000

Сообщение #1 Sp1ke » 04.05.2006, 08:08

FAQ в мануале


FAQ v3 на Wiki
(информация устарела)
Последний раз редактировалось Sp1ke 08.06.2010, 16:30, всего редактировалось 1 раз.
Sp1ke M
Автор темы, Основатель
Аватара
Возраст: 37
Репутация: 6
С нами: 13 лет

Сборник FAQ: плеер

Сообщение #2 Mr.Merak » 05.03.2009, 14:06

Как сворачивать программу в трей (область рядом с часами)?


Минимизация в трей для DUI

http://foobar2000.ho.ua/faq

[img width=400 height=291]http://img706.imageshack.us/img706/818/20100302treyindui.png[/img]

Минимизация в трей для Columns UI

Preferences
Display
--> Columns UI
вкладка Notification area

System notification area
[img width=400 height=291]http://img63.imageshack.us/img63/4287/20100302treyincui.png[/img]


Как прикрутить DFX к портативному фубару


Так как оно использует реестр, то полностью портативным его не сделать. Но вот последовательность которую я только что проделал:
Скачал dfx9Setup-foobar2000.exe с оффсайта, взял 7z и распаковал инсталлятор во временную папку, затем скопировал оттуда \$[48]\components\foo_dfx.dll в папку Components фубара, далее скопировал папку \$SHELL[49]\DFX в папку с фубаром, ну а затем в эту DFX папку скопировал папки \foobar2000\Presets, \foobar2000\Help и \foobar2000\Splash (если версия купленная/ломанная, то эту директорию можно не копировать). Теперь нужно прописать в реестре правильные пути, добавив REG файл, следующего содержания (пути разумеется надо поменять на ваши):
Код: Выделить всё
Windows Registry Editor Version 5.00

[HKEY_LOCAL_MACHINE\SOFTWARE\DFX\18\top_folder]
@="d:\\FooTest\\DFX"

[HKEY_LOCAL_MACHINE\SOFTWARE\DFX\Shared\top_shared_folder]
@="d:\\FooTest\\DFX"


Хочу, чтобы при перетаскивании файлов в плейлист они добавлялись в конец списка!


Перетаскивайте их на панель статуса (status bar)


Как запустить плеер в Linux?


Официально – никак. Через Wine плеер запускается, но гарантий стабильной работы нет.
Как вариант, можете попробовать след. плееры  (Обсуждение):
FALF Player
DeaDBeeF
Jajuk

Как записать теги в Wav-файл?


Никак, т.к. это не предусмотрено форматом.


Как очистить историю редактирования (тегов, конвертации и т. д.)?


ПКМ по кнопке со стрелкой -> Wipe history


Как добавить "тишину" в плейлист?


File -> Add Location: silence://2


Интернет-радио: как записать поток?


Только сторонней программой, типа StreamRipper

Какие параметры командой строки есть у плеера?


foobar2000.exe /? писал(а):/add, /play, /pause, /playpause, /prev, /next, /rand, /stop, /exit, /show, /hide, /config
/command:, /playlist_command:, /playing_command:


ReplayGain: записать данные через CUE

egiko писал(а):
Код: Выделить всё
REM DATE 1965
TITLE "Julian Bream - Baroque Music"
REM REPLAYGAIN_ALBUM_GAIN +1.86 dB
REM REPLAYGAIN_ALBUM_PEAK 0.808075
FILE "Pavanas.ape" WAVE
  TRACK 01 AUDIO
    TITLE "Pavanas"
    PERFORMER "Gaspar Sanz"
    REM REPLAYGAIN_TRACK_GAIN +4.32 dB
    REM REPLAYGAIN_TRACK_PEAK 0.467773
    INDEX 01 00:00:00
FILE "Canarios.ape" WAVE
  TRACK 02 AUDIO
    TITLE "Canarios"
    PERFORMER "Gaspar Sanz"
    REM REPLAYGAIN_TRACK_GAIN +0.68 dB
    REM REPLAYGAIN_TRACK_PEAK 0.553467
    INDEX 01 00:00:00
FILE "Prelude in D minor.ape" WAVE
  TRACK 03 AUDIO
    TITLE "Prelude in D Minor / d-moll / re mineur / re minore"
    PERFORMER "Johann Sebastian Bach"
    REM REPLAYGAIN_TRACK_GAIN +3.35 dB
    REM REPLAYGAIN_TRACK_PEAK 0.483337
    INDEX 01 00:00:00


AXB comparator: как его использовать?

Выделите два трека и выберите в контекстом меню Utils -> AXB Two Tracks...
Про ABX тест
Последний раз редактировалось Sp1ke 16.06.2010, 11:35, всего редактировалось 1 раз.
foobar2000.0pk.ru
Mr.Merak M
Мастер
Возраст: 32
Откуда: Украина
Репутация: 27
С нами: 12 лет 9 месяцев


Вернуться в Общая информация