Создание cue для AVI

Список разделов Другое Аудиоформаты

Описание: Аудиоформаты, конвертация и другие связанные вопросы

Сообщение #1 George Smith » 27.11.2014, 23:32

Есть концерт, в формате avi. Я хочу создать CUE файл, чтобы можно было быстро переходить по песням, без утомительного поиска.

Вот начало CUE:

Спойлер
TITLE "Road of Revolution"
PERFORMER "Linkin Park"
FILE "01.Linkin.Park.Road.to.Revolution.Concert.2008.BDRip.XviD.AC3.-HQ-ViDEO.avi" AVI
TRACK 01 VIDEO
TITLE "One Step Closer"
INDEX 01 00:17:00
TRACK 02 VIDEO
TITLE "Faint"
INDEX 01 04:17:00
TRACK 03 VIDEO
TITLE "Wake"
INDEX 01 08:00:00

Конечно, это не весь концерт, я только начал делать. Но я столкнулся с неожиданной трудностью.
При открытии первой песни ("One Step Closer") все гуд, плеер показывает общую продолжительность в 4 минуты, все ОК.
Но при открытии второй есть интересная особенность - т.е. все как у первой, общая продолжительность 3:43, но по какой-то причине проигрывание начинается с 17 секунды!
С третьей песней еще смешней - проигрывание начинается с 4 минуты!!!

С чем это связано?

Плеер Daum PotPlayer, v1.6.49952

Добавлено спустя 6 минут 17 секунд:
Черт, я нашел причину! Дело было в галочке "Запускать с момента остановки". Не знаю почему, но после ее снятия все заработало, как надо.
George Smith
Автор темы, Бывалый
Репутация: 1
С нами: 3 года 4 месяца

Вернуться в Аудиоформаты