Не понятно откуда берётся исполнитель, в тэгах его НЕТ!

Список разделов Аудиоплеер foobar2000 Есть вопрос!

Описание: У вас проблемы с foobar2000 и вам необходима помощь? Спрашивайте здесь!
Правила раздела: Одна тема — один вопрос или группа связанных вопросов. Обязательно формируйте внятный заголовок, максимально отражающий суть. Подробно описывайте проблему. Не забывайте указать версию плеера, название сборки, по возможности добавить скриншоты проблемы.

Сообщение #1 Satansoft » 29.11.2018, 17:15

Решил я значит сборник сонат Scarlatti привести к одному исполнителю, сборник хорош, но в тэгах умеренное мракобесие и вот, всё поправил, только почему-то исполнитель Domenico Scarlatti? хотя ни в тэгах файлов ни в *.cue его НЕТ, откуда он берётся. И самое интересное в CD1 всё харашоу, как надобно, исполнитель Scott Ross, а на остальных 33 дисках исполнитель Domenico Scarlatti

cue CD1 (где всё харашоу!)
Код: Выделить всё
PERFORMER "Scott Ross"
TITLE "Domenico Scarlatti - Sonatas CD1"
FILE "CDImage.ape" WAVE
  TRACK 01 AUDIO
    TITLE "Sonata in d minor, K.1"
    PERFORMER "Scott Ross"
    INDEX 01 00:00:00
  TRACK 02 AUDIO
    TITLE "Sonata in G major, K.2"
    PERFORMER "Scott Ross"
    INDEX 01 02:47:41
  TRACK 03 AUDIO
    TITLE "Sonata in a minor, K.3"
    PERFORMER "Scott Ross"
    INDEX 01 05:14:63
  TRACK 04 AUDIO
    TITLE "Sonata in g minor, K.4"
    PERFORMER "Scott Ross"
    INDEX 01 07:55:62
  TRACK 05 AUDIO
    TITLE "Sonata in d minor, K.5"
    PERFORMER "Scott Ross"
    INDEX 01 11:14:59
  TRACK 06 AUDIO
    TITLE "Sonata in F major, K.6"
    PERFORMER "Scott Ross"
    INDEX 01 14:17:60
  TRACK 07 AUDIO
    TITLE "Sonata in a minor, K.7"
    PERFORMER "Scott Ross"
    INDEX 01 17:28:10
  TRACK 08 AUDIO
    TITLE "Sonata in g minor, K.8"
    PERFORMER "Scott Ross"
    INDEX 01 21:58:06
  TRACK 09 AUDIO
    TITLE "Sonata in d minor, K.9"
    PERFORMER "Scott Ross"
    INDEX 01 24:42:38
  TRACK 10 AUDIO
    TITLE "Sonata in d minor, K.10"
    PERFORMER "Scott Ross"
    INDEX 01 27:52:03
  TRACK 11 AUDIO
    TITLE "Sonata in c minor, K.11"
    PERFORMER "Scott Ross"
    INDEX 01 30:27:73
  TRACK 12 AUDIO
    TITLE "Sonata in g minor, K.12"
    PERFORMER "Scott Ross"
    INDEX 01 32:55:55
  TRACK 13 AUDIO
    TITLE "Sonata in G major, K.13"
    PERFORMER "Scott Ross"
    INDEX 01 36:33:25
  TRACK 14 AUDIO
    TITLE "Sonata in G major, K.14"
    PERFORMER "Scott Ross"
    INDEX 01 41:11:60
  TRACK 15 AUDIO
    TITLE "Sonata in e minor, K.15"
    PERFORMER "Scott Ross"
    INDEX 01 44:37:43
  TRACK 16 AUDIO
    TITLE "Sonata in B flat major, K.16"
    PERFORMER "Scott Ross"
    INDEX 01 47:55:74
  TRACK 17 AUDIO
    TITLE "Sonata in F major, K.17"
    PERFORMER "Scott Ross"
    INDEX 01 52:36:21
  TRACK 18 AUDIO
    TITLE "Sonata in d minor, K.18"
    PERFORMER "Scott Ross"
    INDEX 00 55:44:14
    INDEX 01 55:46:04
  TRACK 19 AUDIO
    TITLE "Sonata in f minor, K.19"
    PERFORMER "Scott Ross"
    INDEX 01 59:35:29

cue CD 26
Код: Выделить всё
PERFORMER "Scott Ross"
TITLE "Domenico Scarlatti - Sonatas CD26"
FILE "CDImage.ape" WAVE
  TRACK 01 AUDIO
    TITLE "Sonata in B flat major, K.410"
    PERFORMER "Scott Ross"
    INDEX 01 00:00:00
  TRACK 02 AUDIO
    TITLE "Sonata in B flat major, K.411"
    PERFORMER "Scott Ross"
    INDEX 01 03:15:16
  TRACK 03 AUDIO
    TITLE "Sonata in G major, K.412"
    PERFORMER "Scott Ross"
    INDEX 01 05:29:54
  TRACK 04 AUDIO
    TITLE "Sonata in G major, K.413"
    PERFORMER "Scott Ross"
    INDEX 01 08:36:72
  TRACK 05 AUDIO
    TITLE "Sonata in D major, K.414"
    PERFORMER "Scott Ross"
    INDEX 01 10:41:70
  TRACK 06 AUDIO
    TITLE "Sonata in D major, K.415"
    PERFORMER "Scott Ross"
    INDEX 01 14:12:65
  TRACK 07 AUDIO
    TITLE "Sonata in D major, K.416"
    PERFORMER "Scott Ross"
    INDEX 01 16:39:29
  TRACK 08 AUDIO
    TITLE "Sonata in D minor, K.417"
    PERFORMER "Scott Ross"
    INDEX 01 20:14:02
  TRACK 09 AUDIO
    TITLE "Sonata in F major, K.418"
    PERFORMER "Scott Ross"
    INDEX 01 25:17:49
  TRACK 10 AUDIO
    TITLE "Sonata in F major, K.419"
    PERFORMER "Scott Ross"
    INDEX 01 28:28:49
  TRACK 11 AUDIO
    TITLE "Sonata in C major, K.420"
    PERFORMER "Scott Ross"
    INDEX 01 32:03:04
  TRACK 12 AUDIO
    TITLE "Sonata in C major, K.421"
    PERFORMER "Scott Ross"
    INDEX 01 35:58:46
  TRACK 13 AUDIO
    TITLE "Sonata in C major, K.422"
    PERFORMER "Scott Ross"
    INDEX 01 40:05:68
  TRACK 14 AUDIO
    TITLE "Sonata in C major, K.423"
    PERFORMER "Scott Ross"
    INDEX 01 44:08:35
  TRACK 15 AUDIO
    TITLE "Sonata in G major, K.424"
    PERFORMER "Scott Ross"
    INDEX 01 48:29:06
  TRACK 16 AUDIO
    TITLE "Sonata in G major, K.425"
    PERFORMER "Scott Ross"
    INDEX 01 52:01:63
  TRACK 17 AUDIO
    TITLE "Sonata in G minor, K.426"
    PERFORMER "Scott Ross"
    INDEX 01 55:41:04
  TRACK 18 AUDIO
    TITLE "Sonata in G major, K.427"
    PERFORMER "Scott Ross"
    INDEX 01 62:15:57

Скрин Тэгов http://prntscr.com/loijra
Скрин foobar2000 http://prntscr.com/loikua
Satansoft
Автор темы, Новичок
Репутация: 0
С нами: 2 года 8 месяцев

Сообщение #2 postED » 29.11.2018, 17:57

В окне Properties есть кнопка Tools, и там Reload info. Не помогает?
FLAC -8 // Storage
Opus --bitrate 96 // Portable
postED M
Бывалый
Аватара
Откуда: Криворіжжя
Репутация: 58
С нами: 9 лет

Сообщение #3 Satansoft » 29.11.2018, 19:06

postED писал(а):В окне Properties есть кнопка Tools, и там Reload info. Не помогает?
Помогает :twisted: ДА что за %#&ня!11 Два дня искал эту кнопочку :insane:
Satansoft
Автор темы, Новичок
Репутация: 0
С нами: 2 года 8 месяцев


Вернуться в Есть вопрос!