Почему cue второго диска видит foobar2000 а первого НЕТ?

Список разделов Аудиоплеер foobar2000 Есть вопрос!

Описание: У вас проблемы с foobar2000 и вам необходима помощь? Спрашивайте здесь!
Правила раздела: Одна тема — один вопрос или группа связанных вопросов. Обязательно формируйте внятный заголовок, максимально отражающий суть. Подробно описывайте проблему. Не забывайте указать версию плеера, название сборки, по возможности добавить скриншоты проблемы.

Сообщение #1 Satansoft » 23.03.2019, 23:05

Форматировал скачанный мюзикл под себя (tracks + .cue) Убрал из треков все тэги, в cue поменял все пути на правильные, сменил формат и жанр, вот только второй диск foo видит в библиотеке

Код: Выделить всё
REM GENRE Musical
REM DATE 1998
REM DISCID C712B40E
REM COMMENT "ExactAudioCopy v0.99pb4"
PERFORMER "Tanz der Vampire"
TITLE "Tanz der Vampire (Original Vienna Cast) (Disc 2)"
FILE "01 - Tanz der Vampire - Totale Finsternis.flac" WAVE
  TRACK 01 AUDIO
    TITLE "Totale Finsternis"
    PERFORMER "Tanz der Vampire"
    INDEX 01 00:00:00
FILE "02 - Tanz der Vampire - Carpe Noctem! - Fühl die Nacht!.flac" WAVE
  TRACK 02 AUDIO
    TITLE "Carpe Noctem! - Fühl die Nacht!"
    PERFORMER "Tanz der Vampire"
    INDEX 01 00:00:00
FILE "03 - Tanz der Vampire - Ein perfekter Tag.flac" WAVE
  TRACK 03 AUDIO
    TITLE "Ein perfekter Tag"
    PERFORMER "Tanz der Vampire"
    INDEX 01 00:00:00
FILE "04 - Tanz der Vampire - In der Gruft.flac" WAVE
  TRACK 04 AUDIO
    TITLE "In der Gruft"
    PERFORMER "Tanz der Vampire"
    INDEX 01 00:00:00
FILE "05 - Tanz der Vampire - Bücher, Bücher!.flac" WAVE
  TRACK 05 AUDIO
    TITLE "Bücher, Bücher!"
    PERFORMER "Tanz der Vampire"
    INDEX 01 00:00:00
FILE "06 - Tanz der Vampire - Für Sarah (Alfred).flac" WAVE
  TRACK 06 AUDIO
    TITLE "Für Sarah (Alfred)"
    PERFORMER "Tanz der Vampire"
    INDEX 01 00:00:00
FILE "07 - Tanz der Vampire - Noch mehr Bücher!.flac" WAVE
  TRACK 07 AUDIO
    TITLE "Noch mehr Bücher!"
    PERFORMER "Tanz der Vampire"
    INDEX 01 00:00:00
FILE "08 - Tanz der Vampire - Wenn Liebe in Dir ist.flac" WAVE
  TRACK 08 AUDIO
    TITLE "Wenn Liebe in Dir ist"
    PERFORMER "Tanz der Vampire"
    INDEX 01 00:00:00
FILE "09 - Tanz der Vampire - Sie irren, Professor!.flac" WAVE
  TRACK 09 AUDIO
    TITLE "Sie irren, Professor!"
    PERFORMER "Tanz der Vampire"
    INDEX 01 00:00:00
FILE "10 - Tanz der Vampire - Ewigkeit.flac" WAVE
  TRACK 10 AUDIO
    TITLE "Ewigkeit"
    PERFORMER "Tanz der Vampire"
    INDEX 01 00:00:00
FILE "11 - Tanz der Vampire - Die unstillbare Gier.flac" WAVE
  TRACK 11 AUDIO
    TITLE "Die unstillbare Gier"
    PERFORMER "Tanz der Vampire"
    INDEX 01 00:00:00
FILE "12 - Tanz der Vampire - Tanzsaal.flac" WAVE
  TRACK 12 AUDIO
    TITLE "Tanzsaal"
    PERFORMER "Tanz der Vampire"
    INDEX 01 00:00:00
FILE "13 - Tanz der Vampire - Draußen ist Freiheit.flac" WAVE
  TRACK 13 AUDIO
    TITLE "Draußen ist Freiheit"
    PERFORMER "Tanz der Vampire"
    INDEX 01 00:00:00
FILE "14 - Tanz der Vampire - Der Tanz der Vampire - Finale Zweiter Akt.flac" WAVE
  TRACK 14 AUDIO
    TITLE "Der Tanz der Vampire - Finale Zweiter Akt"
    PERFORMER "Tanz der Vampire"
    INDEX 01 00:00:00


А первый НЕТ

Код: Выделить всё
REM GENRE Musical
REM DATE 1998
REM DISCID 0D121811
REM COMMENT "ExactAudioCopy v0.99pb4"
PERFORMER "Tanz der Vampire"
TITLE "Tanz der Vampire (Original Vienna Cast) (Disc 1)"
FILE "01 - Tanz der Vampire - Ouverture.flac" WAVE
  TRACK 01 AUDIO
    TITLE "Ouverture"
    PERFORMER "Tanz der Vampire"
    INDEX 01 00:00:00
FILE "02 - Tanz der Vampire - He, Ho, He!.flac" WAVE
  TRACK 02 AUDIO
    TITLE "He, Ho, He!"
    PERFORMER "Tanz der Vampire"
    INDEX 01 00:00:00
  TRACK 03 AUDIO
    TITLE "Knoblauch"
    PERFORMER "Tanz der Vampire"
    INDEX 00 02:09:18
FILE "03 - Tanz der Vampire - Knoblauch.flac" WAVE
    INDEX 01 00:00:00
FILE "04 - Tanz der Vampire - Bitte, Meine Herren!.flac" WAVE
  TRACK 04 AUDIO
    TITLE "Bitte, Meine Herren!"
    PERFORMER "Tanz der Vampire"
    INDEX 01 00:00:00
FILE "05 - Tanz der Vampire - Eine Schöne Tochter ist ein Segen.flac" WAVE
  TRACK 05 AUDIO
    TITLE "Eine Schöne Tochter ist ein Segen"
    PERFORMER "Tanz der Vampire"
    INDEX 01 00:00:00
FILE "06 - Tanz der Vampire - Nie Geseh'n.flac" WAVE
  TRACK 06 AUDIO
    TITLE "Nie Geseh'n"
    PERFORMER "Tanz der Vampire"
    INDEX 01 00:00:00
FILE "07 - Tanz der Vampire - Gott ist tot.flac" WAVE
  TRACK 07 AUDIO
    TITLE "Gott ist tot"
    PERFORMER "Tanz der Vampire"
    INDEX 01 00:00:00
FILE "08 - Tanz der Vampire - Alles ist hell.flac" WAVE
  TRACK 08 AUDIO
    TITLE "Alles ist hell"
    PERFORMER "Tanz der Vampire"
    INDEX 01 00:00:00
FILE "09 - Tanz der Vampire - Wahrheit.flac" WAVE
  TRACK 09 AUDIO
    TITLE "Wahrheit"
    PERFORMER "Tanz der Vampire"
    INDEX 01 00:00:00
FILE "10 - Tanz der Vampire - Du bist wirklich sehr nett.flac" WAVE
  TRACK 10 AUDIO
    TITLE "Du bist wirklich sehr nett"
    PERFORMER "Tanz der Vampire"
    INDEX 01 00:00:00
FILE "11 - Tanz der Vampire - Einladung zum Ball.flac" WAVE
  TRACK 11 AUDIO
    TITLE "Einladung zum Ball"
    PERFORMER "Tanz der Vampire"
    INDEX 01 00:00:00
FILE "12 - Tanz der Vampire - Draußen ist Freiheit.flac" WAVE
  TRACK 12 AUDIO
    TITLE "Draußen ist Freiheit"
    PERFORMER "Tanz der Vampire"
    INDEX 01 00:00:00
FILE "13 - Tanz der Vampire - Die roten Stiefel - Tanzsequenz.flac" WAVE
  TRACK 13 AUDIO
    TITLE "Die roten Stiefel - Tanzsequenz"
    PERFORMER "Tanz der Vampire"
    INDEX 01 00:00:00
FILE "14 - Tanz der Vampire - Trauer um Chagall - Wuscha-Buscha.flac" WAVE
  TRACK 14 AUDIO
    TITLE "Trauer um Chagall - Wuscha-Buscha"
    PERFORMER "Tanz der Vampire"
    INDEX 01 00:00:00
FILE "15 - Tanz der Vampire - Tot zu sein ist komisch.flac" WAVE
  TRACK 15 AUDIO
    TITLE "Tot zu sein ist komisch"
    PERFORMER "Tanz der Vampire"
    INDEX 01 00:00:00
FILE "16 - Tanz der Vampire - Durch die Wildnis zum Schloß.flac" WAVE
  TRACK 16 AUDIO
    TITLE "Durch die Wildnis zum Schloß"
    PERFORMER "Tanz der Vampire"
    INDEX 01 00:00:00
FILE "17 - Tanz der Vampire - Vor dem Schloß - Finale Erster Akt.flac" WAVE
  TRACK 17 AUDIO
    TITLE "Vor dem Schloß - Finale Erster Akt"
    PERFORMER "Tanz der Vampire"
    INDEX 01 00:00:00

В чём подвох?
Satansoft
Автор темы, Новичок
Репутация: 0
С нами: 3 года 7 месяцев

Сообщение #2 postED » 24.03.2019, 00:14

Наличие информации о прегапе (INDEX 00 02:09:18) означает, что такой cue - non-compilant: он не совместим с оригинальной спецификацией cue от CDRWIN (cue вообще древнейший косокривой костыль и лишь по причине явного безрыбья стал "стандартом"). В Foobar2000 решили не воодить поддержку таких вот разметок, потому тут либо удалять этот прегап, либо слушать без cue, либо заменить cue на что-то более адекватное - я активно использую отличнейший компонент m-tags для хранения тегов вне файлов.

Поправленный cue (если вдруг понадобится записать альбом на диск, то оригинальный cue лучше тоже оставить)
Код: Выделить всё
REM GENRE Musical
REM DATE 1998
REM DISCID 0D121811
REM COMMENT "ExactAudioCopy v0.99pb4"
PERFORMER "Tanz der Vampire"
TITLE "Tanz der Vampire (Original Vienna Cast) (Disc 1)"
FILE "01 - Tanz der Vampire - Ouverture.flac" WAVE
  TRACK 01 AUDIO
    TITLE "Ouverture"
    PERFORMER "Tanz der Vampire"
    INDEX 01 00:00:00
FILE "02 - Tanz der Vampire - He, Ho, He!.flac" WAVE
  TRACK 02 AUDIO
    TITLE "He, Ho, He!"
    PERFORMER "Tanz der Vampire"
    INDEX 01 00:00:00
FILE "03 - Tanz der Vampire - Knoblauch.flac" WAVE
  TRACK 03 AUDIO
    TITLE "Knoblauch"
    PERFORMER "Tanz der Vampire"
    INDEX 01 00:00:00
FILE "04 - Tanz der Vampire - Bitte, Meine Herren!.flac" WAVE
  TRACK 04 AUDIO
    TITLE "Bitte, Meine Herren!"
    PERFORMER "Tanz der Vampire"
    INDEX 01 00:00:00
FILE "05 - Tanz der Vampire - Eine Schöne Tochter ist ein Segen.flac" WAVE
  TRACK 05 AUDIO
    TITLE "Eine Schöne Tochter ist ein Segen"
    PERFORMER "Tanz der Vampire"
    INDEX 01 00:00:00
FILE "06 - Tanz der Vampire - Nie Geseh'n.flac" WAVE
  TRACK 06 AUDIO
    TITLE "Nie Geseh'n"
    PERFORMER "Tanz der Vampire"
    INDEX 01 00:00:00
FILE "07 - Tanz der Vampire - Gott ist tot.flac" WAVE
  TRACK 07 AUDIO
    TITLE "Gott ist tot"
    PERFORMER "Tanz der Vampire"
    INDEX 01 00:00:00
FILE "08 - Tanz der Vampire - Alles ist hell.flac" WAVE
  TRACK 08 AUDIO
    TITLE "Alles ist hell"
    PERFORMER "Tanz der Vampire"
    INDEX 01 00:00:00
FILE "09 - Tanz der Vampire - Wahrheit.flac" WAVE
  TRACK 09 AUDIO
    TITLE "Wahrheit"
    PERFORMER "Tanz der Vampire"
    INDEX 01 00:00:00
FILE "10 - Tanz der Vampire - Du bist wirklich sehr nett.flac" WAVE
  TRACK 10 AUDIO
    TITLE "Du bist wirklich sehr nett"
    PERFORMER "Tanz der Vampire"
    INDEX 01 00:00:00
FILE "11 - Tanz der Vampire - Einladung zum Ball.flac" WAVE
  TRACK 11 AUDIO
    TITLE "Einladung zum Ball"
    PERFORMER "Tanz der Vampire"
    INDEX 01 00:00:00
FILE "12 - Tanz der Vampire - Draußen ist Freiheit.flac" WAVE
  TRACK 12 AUDIO
    TITLE "Draußen ist Freiheit"
    PERFORMER "Tanz der Vampire"
    INDEX 01 00:00:00
FILE "13 - Tanz der Vampire - Die roten Stiefel - Tanzsequenz.flac" WAVE
  TRACK 13 AUDIO
    TITLE "Die roten Stiefel - Tanzsequenz"
    PERFORMER "Tanz der Vampire"
    INDEX 01 00:00:00
FILE "14 - Tanz der Vampire - Trauer um Chagall - Wuscha-Buscha.flac" WAVE
  TRACK 14 AUDIO
    TITLE "Trauer um Chagall - Wuscha-Buscha"
    PERFORMER "Tanz der Vampire"
    INDEX 01 00:00:00
FILE "15 - Tanz der Vampire - Tot zu sein ist komisch.flac" WAVE
  TRACK 15 AUDIO
    TITLE "Tot zu sein ist komisch"
    PERFORMER "Tanz der Vampire"
    INDEX 01 00:00:00
FILE "16 - Tanz der Vampire - Durch die Wildnis zum Schloß.flac" WAVE
  TRACK 16 AUDIO
    TITLE "Durch die Wildnis zum Schloß"
    PERFORMER "Tanz der Vampire"
    INDEX 01 00:00:00
FILE "17 - Tanz der Vampire - Vor dem Schloß - Finale Erster Akt.flac" WAVE
  TRACK 17 AUDIO
    TITLE "Vor dem Schloß - Finale Erster Akt"
    PERFORMER "Tanz der Vampire"
    INDEX 01 00:00:00
FLAC -8 // Storage
Opus --bitrate 96 // Portable
postED M
Бывалый
Аватара
Откуда: Криворіжжя
Репутация: 68
С нами: 10 лет

Сообщение #3 Satansoft » 24.03.2019, 05:11

postED, значицо в энтой строке было дело?

Код: Выделить всё
INDEX 00 02:09:18

Благодарю!
Satansoft
Автор темы, Новичок
Репутация: 0
С нами: 3 года 7 месяцев


Вернуться в Есть вопрос!