Прошу разъяснения

Список разделов Аудиоплеер foobar2000 Есть вопрос!

Описание: У вас проблемы с foobar2000 и вам необходима помощь? Спрашивайте здесь!
Правила раздела: Одна тема — один вопрос или группа связанных вопросов. Обязательно формируйте внятный заголовок, максимально отражающий суть. Подробно описывайте проблему. Не забывайте указать версию плеера, название сборки, по возможности добавить скриншоты проблемы.

Сообщение #1 marillion13 » 05.05.2019, 17:53

Здравствуйте.Здесь https://rutracker.org/forum/viewtopic.php?t=5725843 какой то интересный DTS с "неопознанной частью" (скрин многоканального файла)Изображениепри воспроизведении через FFmpeg Decoder Wrapper 0.3.2 многоканальной дорожки ,пишет вот это:
Частота дискретизации : 96000 Hz
Битрейт : 7832 kbps
Codec : video
При кодировании в WAV получается как и заявлено в релизе DTS, 3/2 (L,C,R,SL,SR), 1536 kbps (1 510 kb/s), 48Hz, 24 bits. Терзают сомнения что 96000 есть, только как то закодировано (на скрине отмечено стрелкой) Ошибаюсь ли я? И если нет,как извлечь 96000? Вот фрагмент https://yadi.sk/d/2KrwFA8mIMogwA
marillion13
Автор темы, Бывалый
Аватара
Репутация: 12
С нами: 4 года 7 месяцев

Сообщение #2 vladj » 05.05.2019, 23:39

Что-бы не сомневатся установи программульку MediaInfo, щёлкай правой по файлу > MediaInfo и она тебе всё покажет...
Код: Выделить всё
Полное имя                    : U:\Nov Off Inet\VTS_04_1\VTS_04_1.VOB
Формат                                   : MPEG-PS
Размер файла                          : 264 Мбайт
Продолжительность                 : 4 м. 42 с.
Режим общего битрейта           : Переменный
Общий поток                            : 7835 Кбит/сек

Видео
Идентификатор                        : 224 (0xE0)
Формат                                    : MPEG Video
Версия формата                       : Version 2
Профиль формата                    : Main@Main
Настройки формата                  : BVOP
Параметр BVOP формата           : Да
Параметр матрицы формата      : По умолчанию
Параметр GOP формата             : M=3, N=15
Продолжительность                   : 33 мс.
Вид битрейта                             : Переменный
Битрейт                                      : 4468 Кбит/сек
Максимальный битрейт               : 5000 Кбит/сек
Ширина                                      : 720 пикселей
Высота                                        : 480 пикселей
Соотношение сторон                       : 16:9
Частота кадров                             : 29,970 (30000/1001) кадров/сек
Стандарт вещания                         : NTSC
Цветовое пространство                  : YUV
Субдискретизация насыщенности   : 4:2:0
Битовая глубина                             : 8 бит
Тип развёртки                                : Прогрессивная
Метод сжатия                                 : С потерями
Бит/(Пиксели*Кадры)                      : 0.431
Временной код первого кадра         : 01:13:11;08
Оригинал временного кода              : Group of pictures header
GOP, открыто/закрыто                    : Открыто
GOP, открыто/закрыто на первом кадре  : Закрыто
Размер потока                                : 18,2 Кбайт (0%)

Аудио #1
Идентификатор                              : 189 (0xBD)-130 (0x82)
Формат                                          : AC-3
Формат/Информация                     : Audio Coding 3
Коммерческое название                 : Dolby Digital
Режим смешивания                        : DVD-Video
Продолжительность                       : 47 мс.
Вид битрейта                                  : Постоянный
Битрейт                                          : 192 Кбит/сек
Каналы                                           : 2 канала
Channel layout                                 : L R
Частота                                          : 48,0 КГц
Частота кадров                              : 31,250 кадров/сек (1536 SPF)
Битовая глубина                          : 16 бит
Метод сжатия                             : С потерями
Размер потока                            : 1,10 Кбайт (0%)
ServiceKind/String                       : Complete Main

Аудио #2
Идентификатор                         : 189 (0xBD)-136 (0x88)
Формат                                     : DTS
Формат/Информация                : Digital Theater Systems
Режим смешивания                   : DVD-Video
Продолжительность                  : 4 м. 41 с.
Вид битрейта                            : Постоянный
Битрейт                                    : 1510 Кбит/сек
Каналы                                     : 6 каналов
Channel layout                           : C L R Ls Rs LFE
Частота                                    : 48,0 КГц
Частота кадров                          : 93,750 кадра/сек (512 SPF)
Битовая глубина                         : 24 бит
Метод сжатия                            : С потерями
Размер потока                           : 50,8 Мбайт (19%)

Аудио #3
Идентификатор                         : 189 (0xBD)-137 (0x89)
Формат                                     : DTS 96/24
Формат/Информация                : Digital Theater Systems
Коммерческое название            : DTS 96/24
Режим смешивания                    : DVD-Video
Продолжительность                   : 4 м. 42 с.
Вид битрейта                             : Постоянный
Битрейт                                     : 1510 Кбит/сек
Каналы                                      : 2 канала
Channel layout                           : L R
Частота                                     : 96,0 КГц
Частота кадров                         : 187,500 кадров/сек (512 SPF)
Битовая глубина                        : 24 бит
Метод сжатия                           : С потерями
Размер потока                          : 50,8 Мбайт (19%)
HTPC Termaltake, eGlobal i5-7200, Asrock Beebox J3160, Onkyo 525E, цап SMSL, фронт Yamaha 8900.
vladj M
Гуру
Аватара
Откуда: Пермский край
Репутация: 376
С нами: 9 лет 8 месяцев

Сообщение #3 marillion13 » 06.05.2019, 10:45

vladj, А по поводу скриншота что скажите? (та часть на которую указывает стрелка)
С таким не сталкивались?
MQA — теперь аудиоданные с дискретностью 192 кГц и 96 кГц упакованы в файле с разрядностью 48 кГц
https://stereo.ru/to/6bvqq-chto-takoe-kodek-mqa-ili-razdelyay-chastoty-i-vlastvuy
Вопрос: как конвертировать с максимальной дискретностью?
marillion13
Автор темы, Бывалый
Аватара
Репутация: 12
С нами: 4 года 7 месяцев

Сообщение #4 AHAPXICT » 06.05.2019, 13:28

marillion13 писал(а):А по поводу скриншота что скажите? (та часть на которую указывает стрелка)
А что это может быть за областью 20.5kHz до 23.5kHz сплошной линией? Да всё что угодно - от некачественного фонящего кабеля до взрыва сверхновой))))
Может и так выглядеть.
Mick Gordon – Cyberdemon (OST DooM).jpg
Media Library it's bad - explorer it's good!
AHAPXICT M
Гуру
Аватара
Возраст: 48
Откуда: Киев
Репутация: 179
С нами: 5 лет 11 месяцев

Сообщение #5 vladj » 06.05.2019, 15:16

marillion13 писал(а):С таким не сталкивались?
А как я столкнусь, если ни в одной из 3-х десятков имеющихся сборок нет возможности делать спектрограммы и потом рассматривать их с умным видом. Мне все эти фишки по боку. Ну и имея ав/ресивер с hdmi, такие треки я естественно открываю в видеоплеере, гда в данном случае могу выбрать любой из 3-х аудиопотоков тут имеющихся.
HTPC Termaltake, eGlobal i5-7200, Asrock Beebox J3160, Onkyo 525E, цап SMSL, фронт Yamaha 8900.
vladj M
Гуру
Аватара
Откуда: Пермский край
Репутация: 376
С нами: 9 лет 8 месяцев

Сообщение #6 marillion13 » 06.05.2019, 16:12

vladj писал(а):Мне все эти фишки по боку
Спасибо за честный ответ.
AHAPXICT писал(а):... всё что угодно - от некачественного фонящего кабеля до взрыва сверхновой))))
Всё же, ближе ко второму :smile: Если б проявили достаточный интерес,то убедились. :wink: Надеюсь всё же кто нибудь заинтересуется и даст развёрнутый ответ.
marillion13
Автор темы, Бывалый
Аватара
Репутация: 12
С нами: 4 года 7 месяцев

Сообщение #7 LUR » 06.05.2019, 16:38

AHAPXICT писал(а):Может и так выглядеть.

Подпись Мика Гордона, да?)
LUR M
Модератор
Аватара
Возраст: 36
Откуда: Минск
Репутация: 250
С нами: 6 лет 10 месяцев

Сообщение #8 AHAPXICT » 07.05.2019, 17:19

LUR писал(а):Подпись Мика Гордона, да?)
Та, да. Там ещё морда на спектрограмме "думовская", надо было картинки из и-нета вчера запостить, а я про тупил.
Mick Gordon - Cyberdemon
Изображение
Изображение
marillion13 писал(а):Надеюсь всё же кто нибудь заинтересуется и даст развёрнутый ответ.
Ну я лаконично написал и с долей иронии, но как видите обсуждение в теме [ADVD][OF] Alan Parsons - The Secret (Deluxe Edition CD+DVD) - 2019 (Progressive/Art Rock) продолжается))
P.S. Вчера лепил четырёх канальный файл из двух стерео: Из flac в wav, потом стерео wav в моно по каналам, потом в MLP Lf-Rf 16/44100 + Ls-Rs 16/44100, дальше MLP во flac 4 channel - капец!(это без деталей, дальше одни маты) Вышло так себе.
Скачать: Mega пароль на архив: 111
Media Library it's bad - explorer it's good!
AHAPXICT M
Гуру
Аватара
Возраст: 48
Откуда: Киев
Репутация: 179
С нами: 5 лет 11 месяцев

Сообщение #9 marillion13 » 08.05.2019, 11:51

AHAPXICT писал(а):Вчера лепил четырёх канальный файл из двух стерео: Из flac в wav, потом стерео wav в моно по каналам, потом в MLP Lf-Rf 16/44100 + Ls-Rs 16/44100, дальше MLP во flac 4 channel - капец!(это без деталей, дальше одни маты) Вышло так себе.
Скачать: Mega пароль на архив: 111
По моему из одной стерео дорожки с помощью NUGEN Halo Upmix_5.1 или Neural UpMix (2.0 to 5.1) получилось бы интересней.К тому же можно слушать через них на лету и добиваться нужного результата,и вся ваша возня была бы короче Задняя дорожка совсем не о чём,нет ярко выраженных моментов,поэтому в целом получилось "бледно" Я в апмиксах не силён,да и не особо приветствую,но есть и среди них очень достойные работы.
В свою очередь хочу поделиться своей кустарщиной(вокальную часть взял с оф. многоканала,ну и на редакторе подогнал под инструм. версию)пароль тот же
marillion13
Автор темы, Бывалый
Аватара
Репутация: 12
С нами: 4 года 7 месяцев

Сообщение #10 AHAPXICT » 08.05.2019, 23:21

marillion13, вы не поняли что я делал(сделал), апмикс это с другой оперы :smile: Ответ тут
Скачал ваш файл, дома послушаю, сейчас на работе, с ноутбука негоже музыку слушать.
Media Library it's bad - explorer it's good!
AHAPXICT M
Гуру
Аватара
Возраст: 48
Откуда: Киев
Репутация: 179
С нами: 5 лет 11 месяцев

Сообщение #11 marillion13 » 09.05.2019, 01:21

AHAPXICT, Забавно :smile: Что мешало сделать многоканал ? Или при этом
..... картина звучания самого альбома настолько меняется, что он воспринимается совершенно по-новому.
данная цитата потеряла бы смысл :smile: ? Имея студийный мультитрэк можно было сделать приличный многоканал,(колесо давно изобрели). К чему всё это?
marillion13
Автор темы, Бывалый
Аватара
Репутация: 12
С нами: 4 года 7 месяцев

Сообщение #12 Azaza » 18.08.2019, 19:39

Немного некропостинга.
В фубаре с версии 1.4 (вроде бы с 1.4) выбор звуковой дорожки для файлов с несколькими дорожками производится через ПКМ по треку в плейлисте->Utilities->Select stream
После выбора дорожки нужно перезапустить воспроизведение. Выбор дорожки запоминается даже после перезапуска плеера. Функция работает как с обычными декодерами фубара, так и с современной версией foo_input_ffmpeg (насчёт упомянутой в теме древней 0.3.2 не помню)

На файлах, про которые писал marillion13, это прекрасно работает.
Аудиофилия - это болезнь,поражающая головной мозг.Набор профилактически-превентивных мер против аудиофилии крайне скуден - техническое образование, умение мыслить логически и наличие здравого смысла.
Azaza M
Мастер
Аватара
Репутация: 132
С нами: 3 года 1 месяц


Вернуться в Есть вопрос!