Почему не работают cue файлы?

Список разделов Аудиоплеер foobar2000 Есть вопрос!

Описание: У вас проблемы с foobar2000 и вам необходима помощь? Спрашивайте здесь!
Правила раздела: Одна тема — один вопрос или группа связанных вопросов. Обязательно формируйте внятный заголовок, максимально отражающий суть. Подробно описывайте проблему. Не забывайте указать версию плеера, название сборки, по возможности добавить скриншоты проблемы.

Сообщение #1 serge8 » 26.12.2019, 14:33

Здравствуйте
у меня foobar 1.4.8
как многие любители музыки я скачиваю
flac'и или ape и хочу их слушать в foobar'e.
С ними часто идут cue файлы.
Так вот эти cue файлы праткически НИКОГДА не работают - т.е
в очень редких случаях они все таки срабытывают
Выдаётся ошибка
либо

"Unable to open item for playback (Object not found):
"E:\HERNN ELLIS\Herb Ellis Windflower\Herb Ellis, Remo Palmier - Windflower.cue" / index: 1

Unable to open item for playback (Object not found):
"E:\HERNN ELLIS\Herb Ellis Windflower\Herb Ellis, Remo Palmier - Windflower.cue" / index: 2


и т.д.

либо такая

"Unable to open item for playback (Error parsing cuesheet: invalid index list (line 20)):
"E:\IKE QUEBEC\2012.Ike Quebec - With A Song In My Heart\With A Song In My Heart ERR.cue"



Суть в том что в 99 из 100 это какая то ошибка и cue файл нерабочий. Честно говоря это ужасно бесит .

ВОПРОС: почему так? Ведь их же делают, чтобы они работали? Это только у меня так или у других тоже? (Может это обычное дело?)
Может быть у меня что то не правильно?

Я не могу понять ... если бы ИНОГДА не работали ...я бы ещё понял, а то
они как правило никогда не работают ...

Спасибо
Сергей
serge8
Автор темы, Новичок
Репутация: 0
С нами: 2 года 8 месяцев

Сообщение #2 postED » 26.12.2019, 15:05

serge8 писал(а):Ведь их же делают, чтобы они работали?
Их делает программа-риппер (EAC) для последующей записи на диск, а для проигрывания в плеере они не предназначены. То, что файлы разметки пришлось использовать как плейлист - это как в поговорке про раков на безрыбье.

Для того, чтобы все работало в фубаре надо чтобы:
1. Кодировка cue-файлов была соответствующей (ANSI, UTF-8 BOM и еще несколько других)
2. Имя референсного файла точно совпадало
Если в cue написано FILE "Herb Ellis, Remo Palmier - Windflower.wav" WAVE, то нужно изменить на имя того файла, который в действительности, например так: FILE "Herb Ellis, Remo Palmier - Windflower.ape" WAVE
3. Фубар не понимает noncompliant-cue в потрековых рипах
FLAC -8 // Storage
Opus --bitrate 96 // Portable
postED M
Бывалый
Аватара
Откуда: Криворіжжя
Репутация: 71
С нами: 10 лет 4 месяца

Сообщение #3 serge8 » 26.12.2019, 15:58

А, понял, спасибо
А я думал, что они для проигрывания в программах типа фубара....

Я заменил, как вы порекомендовали, буквы WAVE на ape
Собщение об ошибке теперь другое :

"Unable to open item for playback (Unsupported file format):
"E:\HERNN ELLIS\Herb Ellis Windflower\Herb Ellis, Remo Palmier - Windflower ERR копия.txt"


Unsupported format это в принципе возможно (у меня аудио карта поддерживапет да 48 Кгц) ...Но если кликнуть непосредственно на файл аре
то фубар его играет без проблем?
serge8
Автор темы, Новичок
Репутация: 0
С нами: 2 года 8 месяцев

Сообщение #4 George Smith » 26.12.2019, 16:05

serge8, попробуйте обновить foobar.
Кстати, откуда рипы берете? На рутрекерских рипах лично у меня проблем никогда не было.

Добавлено спустя 6 минут 10 секунд:
serge8 писал(а):Собщение об ошибке теперь другое :

"Unable to open item for playback (Unsupported file format):
"E:\HERNN ELLIS\Herb Ellis Windflower\Herb Ellis, Remo Palmier - Windflower ERR копия.txt"
А почему расширение файла txt, а не ape?
George Smith В сети
Мастер
Репутация: 57
С нами: 6 лет 1 месяц

Сообщение #5 serge8 » 26.12.2019, 18:02

Да, в этом ошибка! конечно TXT
Это я сохранил файл в текстовом редакторе...
Всё поправил... в файле с расширением cue и заработалою)

Рипы беру на Рутракере ...но может мы разные рипы берём?
Спасибо

Добавлено спустя 8 минут 40 секунд:
А вот этот почему не работает?

"Unable to open item for playback (Error parsing cuesheet: invalid index list (line 24)):
"E:\BURRELL\John Coltrane - Ballads (1962, 2013, Verve-Japan)\Ballads.cue"


Вот cue он небольшой :

TITLE "Ballads"
PERFORMER "John Coltrane"
CATALOG 0008813269423
REM GENRE "Jazz"
REM DATE "1962"
REM DISCID 78079E08
REM REPLAYGAIN_ALBUM_GAIN -0.53 dB
REM REPLAYGAIN_ALBUM_PEAK 1.000000
FILE "01 - Say It (Over and Over Again).flac" WAVE
TRACK 01 AUDIO
TITLE "Say It (Over and Over Again)"
ISRC USMC16211166
REM REPLAYGAIN_TRACK_GAIN -0.48 dB
REM REPLAYGAIN_TRACK_PEAK 0.693665
INDEX 01 00:00:00
TRACK 02 AUDIO
TITLE "You Don't Know What Love Is"
ISRC USMC16211165
REM REPLAYGAIN_TRACK_GAIN -0.07 dB
REM REPLAYGAIN_TRACK_PEAK 0.999969
INDEX 00 04:18:24
FILE "02 - You Don't Know What Love Is.flac" WAVE
INDEX 01 00:00:00
TRACK 03 AUDIO
TITLE "Too Young to Go Steady"
ISRC USMC16211161
REM REPLAYGAIN_TRACK_GAIN -0.07 dB
REM REPLAYGAIN_TRACK_PEAK 0.762360
INDEX 00 05:14:74
FILE "03 - Too Young to Go Steady.flac" WAVE
INDEX 01 00:00:00
TRACK 04 AUDIO
TITLE "All or Nothing at All"
ISRC USMC16253798
REM REPLAYGAIN_TRACK_GAIN -1.63 dB
REM REPLAYGAIN_TRACK_PEAK 0.965118
INDEX 00 04:23:26
FILE "04 - All or Nothing at All.flac" WAVE
INDEX 01 00:00:00
TRACK 05 AUDIO
TITLE "I Wish I Knew"
ISRC USMC16336381
REM REPLAYGAIN_TRACK_GAIN 0.07 dB
REM REPLAYGAIN_TRACK_PEAK 0.803162
INDEX 00 03:37:31
FILE "05 - I Wish I Knew.flac" WAVE
INDEX 01 00:00:00
TRACK 06 AUDIO
TITLE "What's New"
ISRC USMC16251960
REM REPLAYGAIN_TRACK_GAIN -0.80 dB
REM REPLAYGAIN_TRACK_PEAK 0.941589
INDEX 00 04:53:71
FILE "06 - What's New.flac" WAVE
INDEX 01 00:00:00
TRACK 07 AUDIO
TITLE "It's Easy to Remember"
ISRC USMC16253796
REM REPLAYGAIN_TRACK_GAIN -1.58 dB
REM REPLAYGAIN_TRACK_PEAK 1.000000
INDEX 00 03:46:08
FILE "07 - It's Easy to Remember.flac" WAVE
INDEX 01 00:00:00
TRACK 08 AUDIO
TITLE "Nancy (With the Laughing Face)"
ISRC USMC16252383
REM REPLAYGAIN_TRACK_GAIN 1.53 dB
REM REPLAYGAIN_TRACK_PEAK 0.594849
INDEX 00 02:47:41
FILE "08 - Nancy (With the Laughing Face).flac" WAVE
INDEX 01 00:00:00
serge8
Автор темы, Новичок
Репутация: 0
С нами: 2 года 8 месяцев

Сообщение #6 George Smith » 27.12.2019, 07:45

serge8 писал(а):А вот этот почему не работает?
serge8, гораздо проще дать ссылку на этот рип, а не приводить cue :smile:
George Smith В сети
Мастер
Репутация: 57
С нами: 6 лет 1 месяц

Сообщение #7 Azaza » 27.12.2019, 09:13

Как уже писал выше postED, фубар не поддерживает noncompliant cue для потрековых рипов.
Использование cue в качестве плейлиста для потрековых рипов не имеет смысла.
Аудиофилия - это болезнь,поражающая головной мозг.Набор профилактически-превентивных мер против аудиофилии крайне скуден - техническое образование, умение мыслить логически и наличие здравого смысла.
Azaza M
Мастер
Аватара
Репутация: 151
С нами: 3 года 7 месяцев

Сообщение #8 Aliado_71 » 27.12.2019, 10:26

George Smith писал(а):Кстати, откуда рипы берете? На рутрекерских рипах лично у меня проблем никогда не было.
Вот как раз на рутреккере каких только рипов нет, там и образы с cue типа (.wav" WAVE) и потрековые с noncompliant cue.
Aliado_71
Мастер
Аватара
Репутация: 150
С нами: 5 лет 1 месяц


Вернуться в Есть вопрос!