Новое в foobar

Список разделов Аудиоплеер foobar2000 Общая информация

Описание: Общее обсуждение по аудиоплееру foobar2000

Сообщение #1 Ноябрь » 07.04.2009, 19:05

В прежней версии все по чему я кликал в библиотеке тут же открывалось в специальном плэйлисте, после того как поставил новый фубар (beta2) этого больше нет.. Кроме того в самой библиотеке исчезли cue файлы, и открыть песни с непорезанных дорожек теперь нельзя..
Ноябрь
Автор темы
Репутация: 0
С нами: 14 лет 6 месяцев

Сообщение #2 meDveD » 07.04.2009, 19:14

новый фубар (beta2)
новый фубар это 0.9.6.4, не бета

Кроме того в самой библиотеке исчезли cue файлы, и открыть песни с непорезанных дорожек теперь нельзя..
в File -> Preference -> General/Exclude и Media Library/Exlude оставляешь пустым
плагин ещё лучше поставить

Ноябрь писал(а):В прежней версии все по чему я кликал в библиотеке тут же открывалось в специальном плэйлисте
File -> Preference -> Media Library -> Album List/Events
Последний раз редактировалось Sp1ke 07.04.2009, 19:16, всего редактировалось 1 раз.
http://www.last.fm/user/meDveD_spb
meDveD M
Возраст: 34
Откуда: SPb
Репутация: 52
С нами: 14 лет 6 месяцев

Сообщение #3 Ноябрь » 07.04.2009, 19:25

спасибо:)
А есть ли способ вместо cue файлов сразу сделать отображение композиций?
Ноябрь
Автор темы
Репутация: 0
С нами: 14 лет 6 месяцев

Сообщение #4 meDveD » 07.04.2009, 19:33

встраивать CUE внутрь образов (Utils -> Edit cuesheet)
а в  File -> Preference -> General/Exclude поставить исключение на *.CUE

но вообще CUE-файлы и так не отображаются, сразу разбивка на треки
Последний раз редактировалось Sp1ke 07.04.2009, 19:36, всего редактировалось 1 раз.
http://www.last.fm/user/meDveD_spb
meDveD M
Возраст: 34
Откуда: SPb
Репутация: 52
С нами: 14 лет 6 месяцев

Сообщение #5 Ноябрь » 07.04.2009, 20:44

хм.. зачем встраивать, если и так отображаются.. у меня не отображаются, какое-то правило именования?
Встраивание изменит файл? Просто они  участвуют в торрент раздаче, и изменять их нельзя.. переименовывание можно обойти жесткими ссылками, а вот изменение нет..
Ноябрь
Автор темы
Репутация: 0
С нами: 14 лет 6 месяцев

Сообщение #6 meDveD » 07.04.2009, 20:48

Встраивание изменит файл? Просто они  участвуют в торрент раздаче, и изменять их нельзя.. переименовывание можно обойти жесткими ссылками, а вот изменение нет..
Да, изменит, значит не подходит.

у меня не отображаются, какое-то правило именования?
если куй правильный, то картина будет такая:
сам файл образ, и cue-файл, уже разбитый на треки.
Вложения
2009-04-07_204814.png
2009-04-07_204814.png (7.11 КБ) Просмотров: 1340
http://www.last.fm/user/meDveD_spb
meDveD M
Возраст: 34
Откуда: SPb
Репутация: 52
С нами: 14 лет 6 месяцев

Сообщение #7 Ноябрь » 08.04.2009, 00:46

хм..
что не так с куём?)
Код: Выделить всё
REM GENRE "Alternative Rock"
REM DATE 2007
REM DISCID B40C430D
REM COMMENT "ExactAudioCopy v0.99pb4"
PERFORMER "Kula Shaker"
TITLE "Strangefolk"
FILE "Strangefolk.flac" WAVE
  TRACK 01 AUDIO
    TITLE "Out Of The Highway"
    PERFORMER "Kula Shaker"
    INDEX 01 00:00:00
  TRACK 02 AUDIO
    TITLE "Second Sight"
    PERFORMER "Kula Shaker"
    INDEX 01 03:53:53
  TRACK 03 AUDIO
    TITLE "Die For Love"
    PERFORMER "Kula Shaker"
    INDEX 00 07:36:38
    INDEX 01 07:38:45
  TRACK 04 AUDIO
    TITLE "Great Dictator (Of The Free World)"
    PERFORMER "Kula Shaker"
    INDEX 00 11:03:43
    INDEX 01 11:04:68
  TRACK 05 AUDIO
    TITLE "Strangefolk"
    PERFORMER "Kula Shaker"
    INDEX 00 14:15:58
    INDEX 01 14:19:40
  TRACK 06 AUDIO
    TITLE "Song Of Love / Narayana"
    PERFORMER "Kula Shaker"
    INDEX 01 15:47:25
  TRACK 07 AUDIO
    TITLE "Shadowlands"
    PERFORMER "Kula Shaker"
    INDEX 01 21:18:23
  TRACK 08 AUDIO
    TITLE "Fool That I Am"
    PERFORMER "Kula Shaker"
    INDEX 00 25:27:68
    INDEX 01 25:29:00
  TRACK 09 AUDIO
    TITLE "Hurricane Season"
    PERFORMER "Kula Shaker"
    INDEX 00 29:22:63
    INDEX 01 29:24:48
  TRACK 10 AUDIO
    TITLE "Ol' Jack Tar"
    PERFORMER "Kula Shaker"
    INDEX 01 35:27:65
  TRACK 11 AUDIO
    TITLE "6ft Down Blues"
    PERFORMER "Kula Shaker"
    INDEX 00 39:04:00
    INDEX 01 39:04:73
  TRACK 12 AUDIO
    TITLE "Dr Kitt"
    PERFORMER "Kula Shaker"
    INDEX 00 42:58:08
    INDEX 01 43:00:28
  TRACK 13 AUDIO
    TITLE "Persephone"
    PERFORMER "Kula Shaker"
    INDEX 00 47:01:20
    INDEX 01 47:38:48
Ноябрь
Автор темы
Репутация: 0
С нами: 14 лет 6 месяцев

Сообщение #8 meDveD » 08.04.2009, 00:53

ну если его кинуть в плейлист он будет играть?
если да, то с ним всё в порядке.
http://www.last.fm/user/meDveD_spb
meDveD M
Возраст: 34
Откуда: SPb
Репутация: 52
С нами: 14 лет 6 месяцев

Сообщение #9 Ноябрь » 08.04.2009, 01:02

Играет, но не показывает, может это какой-то плагин, или где-то надо включить?
Ноябрь
Автор темы
Репутация: 0
С нами: 14 лет 6 месяцев

Сообщение #10 Keplian » 08.04.2009, 01:12

Попробуй заменить
Код: Выделить всё
FILE "Strangefolk.flac"
на
Код: Выделить всё
FILE "Strangefolk.wav"
Keplian
Репутация: 1
С нами: 12 лет 6 месяцев

Сообщение #11 meDveD » 08.04.2009, 01:14

Keplian
зачем менять, если куе играет.

Ноябрь
обычный фубар, никаких плагинов:

http://i42.tinypic.com/fo3m0y
http://www.last.fm/user/meDveD_spb
meDveD M
Возраст: 34
Откуда: SPb
Репутация: 52
С нами: 14 лет 6 месяцев

Сообщение #12 Ноябрь » 08.04.2009, 03:44

похоже дело в том, что моя библиотека выстроена по структуре папок
Последний раз редактировалось Ноябрь 08.04.2009, 03:48, всего редактировалось 1 раз.
Ноябрь
Автор темы
Репутация: 0
С нами: 14 лет 6 месяцев


Вернуться в Общая информация

cron