Foobar2000 не поддерживает большие CUE для миксов?

Список разделов Аудиоплеер foobar2000 Есть вопрос!

Описание: У вас проблемы с foobar2000 и вам необходима помощь? Спрашивайте здесь!
Правила раздела: Одна тема — один вопрос или группа связанных вопросов. Обязательно формируйте внятный заголовок, максимально отражающий суть. Подробно описывайте проблему. Не забывайте указать версию плеера, название сборки, по возможности добавить скриншоты проблемы.

Сообщение #1 RoDion » 12.01.2015, 09:41

Столкнулся с такой проблемой что фубар отказывается открывать CUE файл с количеством треков больше 100!! Решается ли данная проблема?
CUE написанный собственноручно для микса!! в порграмме Mp3DirectCut решил открыть высвечивается ошибка Unable to open item for playback (Error parsing cuesheet: invalid track number (line 400)) в данном CUE прописан 101 трек!!!
Последний раз редактировалось RoDion 13.01.2015, 23:25, всего редактировалось 5 раз(а).
RoDion
Автор темы
Репутация: 0
С нами: 6 лет 9 месяцев

Foobar2000 не поддерживает большие CUE

Сообщение #2 Yurnikos » 12.01.2015, 13:46

RoDion:отказывается открывать CUE файл с количеством треков больше 100!!
Какой смысл создавать "куй" с таким количеством файлов? :
Винил - сколько треков может содержать? = обычно, 10-15
Аудио Сд (я ПОДЧЁРКИВАЮ !) сколько треков может содержать? = обычно, 15-20
Спойлер
И, уж, если возникает такая необходимость - "разбить" / поделить на "странички" с количеством
файлов до 99-ти - что опять какая-то "религия" запрещает?
ЗЫ. В моей практике встретился только ОДИН СД с бОльшим НОРМЫ числом треков - это
обзорно-ознакомительный "сборник рок-н-роллов" с совершенно плавными переходами от трека к треку,
имхо, выполненный совершенно профессионально с музыкальной точки зрения . . .
Для сведения (моя редакция) : Five BUNNY-Rock-n-Roll, Limited; Disс NUMBER=0E193849; DisckID=9F12D063; 98=число треков.
ЗЫ.ЗЫ.:
_Disс NUMBER: Это то, что показывают программы типа Far, различные Commander-ы, включая фубар - для аудио СД
_Disc ID: "вычисляемый" параметр, используется базой аудио СД freedb.org для идентификации
диска в приводе компа, для заполнения полей тегов аудио СД информацией (ежели, оной нет на самом СД)
Примерно так!

Добавлено спустя 2 часа 19 минут:
Yurnikos:смысл создавать "куй" с таким количеством файлов?
Куй-файлы использую только для того, чтобы видеть правильные теги, а не кривые теги от создателей,
вписанные в сами файлы.
Эту задачу (показывать правильные теги) возможно только в куй-файлах,
т.к. теги в файлах *.m3u и *.m3u8 игнорируются проигрывателями
Yurnikos
Гость

Сообщение #3 postED » 12.01.2015, 20:31

RoDion, Audio CD не поддерживает больше 99 треков, вероятно логика фубара такова
Решение наверно стоит искать в замене cue на apl
FLAC -8 // Storage
Opus --bitrate 96 // Portable
postED M
Аватара
Откуда: Криворіжжя
Репутация: 109
С нами: 11 лет 10 месяцев

Сообщение #4 Degen1103 » 12.01.2015, 20:38

Не знаю, имеет ли отношение к вопросу, но в Properties - Advanced - Display - Properties dialog есть пунктик, в котором выставляется число треков или информации по ним; по умолчанию стоит именно 100.
Degen1103
Аватара
Репутация: 0
С нами: 13 лет 2 месяца

Сообщение #5 RoDion » 12.01.2015, 20:45

Yurnikos,

причем тут винил и сд вообще?))) если вы не в курсе есть люди занимаются написание cue файлов к миксам и тд

Degen1103,

нет это не поможет

наверное единственный способ это разбить на пополам микс и переделать cue
RoDion
Автор темы
Репутация: 0
С нами: 6 лет 9 месяцев

Сообщение #6 vladj » 12.01.2015, 22:29

RoDion:причем тут винил и сд вообще?
При том, что CUE изначально был предназначен для восстановления и записи образа рипнутого во FLAC CD диска.
А куда уж потом его приспособили - дело десятое.
HTPC Termaltake, eGlobal i5-7200, Asrock Beebox J3160, Onkyo 525E, цап SMSL, фронт Yamaha 8900.
vladj M
Аватара
Откуда: Пермский край
Репутация: 422
С нами: 11 лет 7 месяцев

Сообщение #7 RoDion » 12.01.2015, 23:22

vladj, если речь идет о большом количестве треков наверное здесь не уместно писать про винил и сд, логику можно включить?
RoDion
Автор темы
Репутация: 0
С нами: 6 лет 9 месяцев

Сообщение #8 vladj » 13.01.2015, 00:07

Выше я в нескольких словах пояснил для чего начали CUE делать. Если у кого-то что-то не получается
с их хотелками несуразными, могут идти лесом...без обид ? :smile:
HTPC Termaltake, eGlobal i5-7200, Asrock Beebox J3160, Onkyo 525E, цап SMSL, фронт Yamaha 8900.
vladj M
Аватара
Откуда: Пермский край
Репутация: 422
С нами: 11 лет 7 месяцев

Сообщение #9 RoDion » 13.01.2015, 00:46

vladj, я знаю для чего начали делать, без вас прекрасно это узнал, для вас фраза актуальна из "Бриллиантовой руки" Как говорит наш шеф если человек .... то это надолго!! без обид)) спрашиваю одно вы мне сучите другое и тема закрыта! Изначально было лучше разрезать, нежели тут спрашивать совета
RoDion
Автор темы
Репутация: 0
С нами: 6 лет 9 месяцев

Сообщение #10 Yurnikos » 13.01.2015, 09:37

RoDion! ТЫ НЕ ПРАВ !
RoDion:я знаю для чего начали делать, без вас прекрасно это узнал, для вас
ОДНАКО! Зачем "брызгать слюной" на тутошних "жителей"? И, главное, без должного повода!
А вот твоё утверждение по теме вопроса НЕ СООТВЕТСТВУЕТ ДЕЙСТВИТЕЛЬНОСТИ
(НЕ поддерживает большие CUE для миксов):
TRACK 118 AUDIO
TITLE "Трещётка гремучей змеи"
INDEX 01 63:25:02
TRACK 119 AUDIO
TITLE "Рычание крокодила"
INDEX 01 63:59:03
Это пример последних треков куй-файла, созданного фубаром в варианте "DUI" v1.3.7_b_1от 2014-12-23
ЗЫ. Если ты не можешь установить настройки фу для себя, любимого, то предлагаю подождать, ПОКА ЗНАЮЩИЕ
твой вопрос, ответят тебе!
ЗЫ.ЗЫ. Куй-файлами, сдесь ! , занимается ОЧЕНЬ ОГРАНИЧЕННОЕ ЧИСЛО ПОЛЬЗОВАТЕЛЕЙ,
а уж куй-файлами "для миксов", ИМХО !, и вовсе - единицы
Yurnikos
Гость

Сообщение #11 RoDion » 13.01.2015, 21:28

Yurnikos, начнем с того что плевать начали в мою сторону, использую чистый фубар без всяких вариаций и CUE не создаю фубаром!!!
RoDion
Автор темы
Репутация: 0
С нами: 6 лет 9 месяцев

Сообщение #12 Yurnikos » 13.01.2015, 22:24

RoDion:использую чистый фубар без всяких вариаций и CUE не создаю фубаром!!!
А претензию заявил по фубару! Умеет и создавать и читать - и в этом фу тоже хорош!
Пользоваться сторонними программами или способностями фу - твоё право !!!

Degen1103:Degen1103 » Вчера, 20:38
Не знаю, имеет ли отношение к вопросу, но в Properties - Advanced - Display - Properties dialog есть пунктик, в котором выставляется число треков или информации по ним; по умолчанию стоит именно 100.
Имеет отношение и самое непосредственное (см. в ответе "RoDion"-у) - просто тут, обсуждают всё-же сам фу, его возможности
и недостатки!
ЗЫ. Переход на личности считаю неуместным в любой форме!
ЗЫЗЫ. ИМХО! Кичиться тут любыми своими "ЗНАНЬЯМИ" бесполезно и ещё ИМХО - ВРЕДНО, т.к.
можно "заработать" отсутствие ответов на свои вопросы, ибо "связываться" с таким "подписчиком" себе дороже !!!
Yurnikos
Гость

Сообщение #13 RoDion » 13.01.2015, 23:22

Yurnikos, Properties - Advanced - Display - Properties dialog да не работает этот пункт!!! Как вылазит ошибка, так и осталась

Unable to open item for playback (Error parsing cuesheet: invalid track number (line 400))

наверное мне стоило указать вопросительный знак в конце, а то сейчас расхоливарите...что в принципе некоторые и делают
RoDion
Автор темы
Репутация: 0
С нами: 6 лет 9 месяцев

Сообщение #14 Yurnikos » 14.01.2015, 00:23

Может стоило указать количество треков в твоём куй-филе,
я выставил "200" и попытал фу - получил результат
RoDion:Unable to open item for playback (Error parsing cuesheet: invalid track number (line 400))
"invalid track number (line 400)" - открывай куй в "блокноте" и смотри строку "400"
указано на ошибку в номере трека, кроме,
в ошибку уводить могут : неправ. имя файла; лишние кавычки в имени артиста имени трека; пробелы в недопустимых местах (стандарт куй-файла должен соблюдаться железно).
Встречался с переставленными местами номер трека и другими (навскидку не вспомню)
К сожалению, в фу, небыло указаний об конкретной ошибке,
пробуй править куй в сторонней программе (я правлю в EAC-имхо, наиболее достоверная программа)
Не доверяю другим типа "medieval..."
ЗЫ. Попробую выставить 450 - сообщу о результате

Добавлено спустя 58 минут 14 секунд:
Yurnikos:Попробую выставить 450 - сообщу о результате
Выставил 500 - получил куй-файл размером 16 687 КБ, число треков :
FILE "2-бваг­­л© б¬лзЄ®ўл© 2.mp3" WAVE
TRACK 102046 AUDIO
REM DATE 2008
INDEX 01 00:00:00
FILE "4-бваг­­л© б¬лзЄ®ўл©.mp3" WAVE
TRACK 102047 AUDIO
REM DATE 2008
INDEX 01 00:00:00
это в конце куй файла!
Yurnikos
Гость

Сообщение #15 RoDion » 14.01.2015, 09:45

Yurnikos, EAC высвечивает ошибку в строке 3, смотрю ничего там нет, проверил все названия, ничего лишнего, везде кавычки есть, кинул в Cue Corrector ошибки не высветил, Cue splitter высветил что макс кол 99

вот сам куе http://www44.zippyshare.com/v/qt6FJx1O/file.html
RoDion
Автор темы
Репутация: 0
С нами: 6 лет 9 месяцев

Сообщение #16 Yurnikos » 14.01.2015, 11:39

RoDion:EAC высвечивает ошибку в строке 3
и вставил-бы ея тут, чем посылать мя туда, куда ходить вредно!
(Здоровенные кнопы СКАЧАТЬ предлагают качать не то что надо!)
EAC-ом сказано, что в строке 3 - ошибка, только какая, что на что исправливать - думай своей головой . . .
скопируй сюда строк 20 от начала - удобней будет глянуть
И тренируйся на КОПИИ оригинала куй-файла - испортишь - выкинешь, снова закопируешь и так пока не заработает!
Yurnikos
Гость

CUE

Сообщение #17 RoDion » 14.01.2015, 23:17

Yurnikos,

тут весь куе

Спойлер
PERFORMER "Simon Patterson & John Askew"
TITLE "Live @ Open Up 100 at RED Nightclub in Toronto, Canada (2014-12-31)"
FILE "Simon_Patterson_and_John_Askew_-_Live_at_Open_Up_100_RED_Nightclub_Toronto_31-12-2014.mp3" MP3
TRACK 01 AUDIO
PERFORMER "Dosem"
TITLE "Ellipsis"
INDEX 01 00:00:00
TRACK 02 AUDIO
PERFORMER "Maceo Plex"
TITLE "Conjure Floyd"
INDEX 01 04:11:00
TRACK 03 AUDIO
PERFORMER "ID"
TITLE "ID"
INDEX 01 09:36:00
TRACK 04 AUDIO
PERFORMER "Sam Paganini"
TITLE "Rave"
INDEX 01 13:30:00
TRACK 05 AUDIO
PERFORMER "ID"
TITLE "ID"
INDEX 01 19:45:00
TRACK 06 AUDIO
PERFORMER "ID"
TITLE "ID"
INDEX 01 23:10:00
TRACK 07 AUDIO
PERFORMER "ID"
TITLE "ID"
INDEX 01 27:34:00
TRACK 08 AUDIO
PERFORMER "ID"
TITLE "ID"
INDEX 01 32:27:00
TRACK 09 AUDIO
PERFORMER "Filterheadz"
TITLE "Sphere"
INDEX 01 39:22:00
TRACK 10 AUDIO
PERFORMER "Sander Van Doorn"
TITLE "Get Enough"
INDEX 01 42:47:00
TRACK 11 AUDIO
PERFORMER "Tempo Giusto"
TITLE "Dodger"
INDEX 01 46:38:00
TRACK 12 AUDIO
PERFORMER "Cristian Varela"
TITLE "Pornogames (Alex Di Stefano Remix)"
INDEX 01 53:24:00
TRACK 13 AUDIO
PERFORMER "Simon Patterson feat. Lucy Pullin"
TITLE "The One"
INDEX 01 57:06:00
TRACK 14 AUDIO
PERFORMER "Astrix"
TITLE "Vicious Cycles"
INDEX 01 59:47:00
TRACK 15 AUDIO
PERFORMER "Daniel Skyver"
TITLE "Tantrum (Activa Remix)"
INDEX 01 65:31:00
TRACK 16 AUDIO
PERFORMER "Freq"
TITLE "What Rises Must Converge"
INDEX 01 70:52:00
TRACK 17 AUDIO
PERFORMER "Neelix"
TITLE "Leave Me Alone (Simon Patterson Remix)"
INDEX 01 74:49:00
TRACK 18 AUDIO
PERFORMER "Simon Patterson & Jordan Suckley"
TITLE "Vanilla"
INDEX 01 81:32:00
TRACK 19 AUDIO
PERFORMER "John Askew"
TITLE "Black Out (Simon Patterson Remix)"
INDEX 01 86:12:00
TRACK 20 AUDIO
PERFORMER "Simon Patterson"
TITLE "Whites Of Her Eyes"
INDEX 01 91:34:00
TRACK 21 AUDIO
PERFORMER "Simon Patterson"
TITLE "Brush Strokes"
INDEX 01 97:05:00
TRACK 22 AUDIO
PERFORMER "DJ Eco"
TITLE "Light At The End (Lost World Remix) (Martin Roth Edit)"
INDEX 01 104:16:00
TRACK 23 AUDIO
PERFORMER "Sean Tyas"
TITLE "Mirella"
INDEX 01 108:44:00
TRACK 24 AUDIO
PERFORMER "Reverse"
TITLE "Distant Destiny"
INDEX 01 112:27:00
TRACK 25 AUDIO
PERFORMER "Magnus"
TITLE "Velvet (John O'Callaghan Remix)"
INDEX 01 117:19:00
TRACK 26 AUDIO
PERFORMER "Martin Duckworth feat. Amber Traill"
TITLE "Let Me Go"
INDEX 01 122:40:00
TRACK 27 AUDIO
PERFORMER "John O'Callaghan"
TITLE "One Special Particle"
INDEX 01 129:37:00
TRACK 28 AUDIO
PERFORMER "Simon Patterson"
TITLE "Miss You"
INDEX 01 134:14:00
TRACK 29 AUDIO
PERFORMER "Sneijder"
TITLE "Facelift"
INDEX 01 139:29:00
TRACK 30 AUDIO
PERFORMER "Sean Tyas"
TITLE "Lift"
INDEX 01 144:20:00
TRACK 31 AUDIO
PERFORMER "Johan Gielen"
TITLE "Physical Overdrive (Darren Porter Remix)"
INDEX 01 150:44:00
TRACK 32 AUDIO
PERFORMER "A-Team"
TITLE "Hadrush"
INDEX 01 155:46:00
TRACK 33 AUDIO
PERFORMER "Delirious"
TITLE "Silver Sky (Astrix Remix)"
INDEX 01 162:24:00
TRACK 34 AUDIO
PERFORMER "ID"
TITLE "ID"
INDEX 01 167:28:00
TRACK 35 AUDIO
PERFORMER "Sly One vs. Jurrane"
TITLE "Citizen"
INDEX 01 170:39:00
TRACK 36 AUDIO
PERFORMER "ID"
TITLE "ID"
INDEX 01 174:59:00
TRACK 37 AUDIO
PERFORMER "Omega Drive"
TITLE "Sound Of"
INDEX 01 177:48:00
TRACK 38 AUDIO
PERFORMER "Federation"
TITLE "Be There (Darren Porter Remix)"
INDEX 01 181:13:00
TRACK 39 AUDIO
PERFORMER "Ellie Lawson & Proyal"
TITLE "Crystalise (XGenic Dub Remix)"
INDEX 01 186:03:00
TRACK 40 AUDIO
PERFORMER "Chris Chambers"
TITLE "The Last Tribalist (Jmix Remix)"
INDEX 01 188:48:00
TRACK 41 AUDIO
PERFORMER "Nova Fractal"
TITLE "Perplexed (Fiery Dawn Remix)"
INDEX 01 192:00:00
TRACK 42 AUDIO
PERFORMER "Max Graham vs. Maarten de Jong"
TITLE "Lekker"
INDEX 01 196:54:00
TRACK 43 AUDIO
PERFORMER "John Askew"
TITLE "Giving You Acid (Sly One vs. Jurrane Remix)"
INDEX 01 201:11:00
TRACK 44 AUDIO
PERFORMER "Nicola Maddaloni"
TITLE "Emptiness (Aero 21 Remix)"
INDEX 01 205:22:00
TRACK 45 AUDIO
PERFORMER "Earth Nation"
TITLE "Alienated (John Askew Remix)"
INDEX 01 208:41:00
TRACK 46 AUDIO
PERFORMER "Nicola Maddaloni"
TITLE "Emptiness (Aero 21 Remix)"
INDEX 01 213:01:00
TRACK 47 AUDIO
PERFORMER "ID"
TITLE "ID"
INDEX 01 214:10:00
TRACK 48 AUDIO
PERFORMER "ID"
TITLE "ID"
INDEX 01 219:15:00
TRACK 49 AUDIO
PERFORMER "ID"
TITLE "ID"
INDEX 01 222:14:00
TRACK 50 AUDIO
PERFORMER "Future Antics"
TITLE "Dark Angel"
INDEX 01 224:45:00
TRACK 51 AUDIO
PERFORMER "ID"
TITLE "ID"
INDEX 01 229:07:00
TRACK 52 AUDIO
PERFORMER "Re:Locate vs. Robert Nickson & Carol Lee"
TITLE "Built To Last"
INDEX 01 231:50:00
TRACK 53 AUDIO
PERFORMER "Empirion"
TITLE "Narcotic Influence (John Askew Remix)"
INDEX 01 236:11:00
TRACK 54 AUDIO
PERFORMER "Prides"
TITLE "I Should Know You Better (Grum Remix)"
INDEX 01 239:37:00
TRACK 55 AUDIO
PERFORMER "Puccio"
TITLE "Kuma"
INDEX 01 243:44:00
TRACK 56 AUDIO
PERFORMER "Tom8 & Sou Kanai"
TITLE "Countless (Witness45 Remix)"
INDEX 01 245:33:00
TRACK 57 AUDIO
PERFORMER "Astrix"
TITLE "FeeL.S.D."
INDEX 01 247:23:00
TRACK 58 AUDIO
PERFORMER "ID"
TITLE "ID"
INDEX 01 251:02:00
TRACK 59 AUDIO
PERFORMER "Audiowarp"
TITLE "Restless"
INDEX 01 253:12:00
TRACK 60 AUDIO
PERFORMER "Sam Jones & Will Rees"
TITLE "Firedrill"
INDEX 01 257:33:00
TRACK 61 AUDIO
PERFORMER "ID"
TITLE "ID"
INDEX 01 259:24:00
TRACK 62 AUDIO
PERFORMER "Federation"
TITLE "Quiero"
INDEX 01 262:57:00
TRACK 63 AUDIO
PERFORMER "Aly & Fila with Ferry Tayle"
TITLE "Nubia (Extended Mix)"
INDEX 01 266:14:00
TRACK 64 AUDIO
PERFORMER "John Askew"
TITLE "Shine"
INDEX 01 270:23:00
TRACK 65 AUDIO
PERFORMER "Simon Patterson"
TITLE "Smack (John Askew Remix)"
INDEX 01 276:19:00
TRACK 66 AUDIO
PERFORMER "Aero 21"
TITLE "Freedom"
INDEX 01 281:28:00
TRACK 67 AUDIO
PERFORMER "Paul Miller"
TITLE "Plick Plack"
INDEX 01 283:32:00
TRACK 68 AUDIO
PERFORMER "Unbeat"
TITLE "Martyrdom"
INDEX 01 287:38:00
TRACK 69 AUDIO
PERFORMER "ID"
TITLE "ID"
INDEX 01 291:46:00
TRACK 70 AUDIO
PERFORMER "ID"
TITLE "ID"
INDEX 01 293:21:00
TRACK 71 AUDIO
PERFORMER "Reaky"
TITLE "Situation 69 (Audiowarp Tech Mix)"
INDEX 01 297:42:00
TRACK 72 AUDIO
PERFORMER "Angelique"
TITLE "Being (Cold Rush Remix)"
INDEX 01 299:45:00
TRACK 73 AUDIO
PERFORMER "Bloodhound Gang"
TITLE "Dimes (Sean Tyas Remix)"
INDEX 01 304:48:00
TRACK 74 AUDIO
PERFORMER "Simon Patterson"
TITLE "Brush Strokes (John Askew Remix)"
INDEX 01 307:25:00
TRACK 75 AUDIO
PERFORMER "John Askew"
TITLE "Mechanism"
INDEX 01 311:45:00
TRACK 76 AUDIO
PERFORMER "ID"
TITLE "ID"
INDEX 01 316:24:00
TRACK 77 AUDIO
PERFORMER "ID"
TITLE "ID"
INDEX 01 318:23:00
TRACK 78 AUDIO
PERFORMER "DJ Misjah & DJ Tim"
TITLE "Access (John Askew Remix)"
INDEX 01 320:41:00
TRACK 79 AUDIO
PERFORMER "John Askew"
TITLE "Plush"
INDEX 01 325:49:00
TRACK 80 AUDIO
PERFORMER "ID"
TITLE "ID"
INDEX 01 330:49:00
TRACK 81 AUDIO
PERFORMER "ID"
TITLE "ID"
INDEX 01 333:59:00
TRACK 82 AUDIO
PERFORMER "ID"
TITLE "ID"
INDEX 01 336:25:00
TRACK 83 AUDIO
PERFORMER "ID"
TITLE "ID"
INDEX 01 337:42:00
TRACK 84 AUDIO
PERFORMER "John Askew"
TITLE "Giving You Acid (Harmonic Rush On Salvia Remix)"
INDEX 01 340:57:00
TRACK 85 AUDIO
PERFORMER "ID"
TITLE "ID"
INDEX 01 347:05:00
TRACK 86 AUDIO
PERFORMER "E-Clip"
TITLE "Artificial Intelligence"
INDEX 01 351:39:00
TRACK 87 AUDIO
PERFORMER "ID"
TITLE "ID"
INDEX 01 355:22:00
TRACK 88 AUDIO
PERFORMER "ID"
TITLE "ID"
INDEX 01 358:34:00
TRACK 89 AUDIO
PERFORMER "Killerwatts & Waio"
TITLE "Wake Up (Symbolic Remix)"
INDEX 01 362:28:00
TRACK 90 AUDIO
PERFORMER "Simon Patterson feat. Sarah Howells"
TITLE "Dissolve"
INDEX 01 367:09:00
TRACK 91 AUDIO
PERFORMER "Outsiders & Burn In Noise"
TITLE "Burning Out"
INDEX 01 373:13:00
TRACK 92 AUDIO
PERFORMER "ID"
TITLE "ID"
INDEX 01 375:44:00
TRACK 93 AUDIO
PERFORMER "Astrix & Simon Patterson"
TITLE "Shadows"
INDEX 01 377:48:00
TRACK 94 AUDIO
PERFORMER "ID"
TITLE "ID"
INDEX 01 381:37:00
TRACK 95 AUDIO
PERFORMER "ID"
TITLE "ID"
INDEX 01 385:16:00
TRACK 96 AUDIO
PERFORMER "ID"
TITLE "ID"
INDEX 01 392:24:00
TRACK 97 AUDIO
PERFORMER "ID"
TITLE "ID"
INDEX 01 397:36:00
TRACK 98 AUDIO
PERFORMER "ID"
TITLE "ID"
INDEX 01 400:40:00
TRACK 99 AUDIO
PERFORMER "ID"
TITLE "ID"
INDEX 01 402:30:00
TRACK 100 AUDIO
PERFORMER "ID"
TITLE "ID"
INDEX 01 407:31:00
TRACK 101 AUDIO
PERFORMER "ID"
TITLE "ID"
INDEX 01 409:18:00
RoDion
Автор темы
Репутация: 0
С нами: 6 лет 9 месяцев

Сообщение #18 guest » 15.01.2015, 00:39

А что, EAC понимает MP3? В любом случае, нужно

FILE "Simon_Patterson_and_John_Askew_-_Live_at_Open_Up_100_RED_Nightclub_Toronto_31-12-2014.mp3" MP3

заменить на

FILE "Simon_Patterson_and_John_Askew_-_Live_at_Open_Up_100_RED_Nightclub_Toronto_31-12-2014.mp3" WAVE
guest
Гость

Сообщение #19 Yurnikos » 15.01.2015, 08:12

RoDion:тут весь куе
"Ошибка в строке 3" на кою указал EAC, содержится в Сообщении #18 "guest"
Стандарт имени ОБРАБАТЫВАЕМОГО ФАЙЛА : FILE "Имя файла с раширением {.flac;.ape;.m4a;.mp3} WAVE
Окончание строки = ВСЕГДА "WAVE" !!!
ЗЫ. Тырнет просто "кишит" сообщениями о стандартах файлов *.CUE[/b][/u] ; *.m3u и т.д

[b]
guest:guest » Сегодня, 00:39
А что, EAC понимает MP3?
Понимает прекрасно! Когда мне нужно заменить "кривые" теги в любых файлах,
находящихся на раздаче в трекере - пользую Куй-файлы, бо ни один из плейеров
не выводит теги из файлов *.m3u, например.

Добавлено спустя 2 минуты 46 секунд:
Yurnikos:Стандарт имени ОБРАБАТЫВАЕМОГО ФАЙЛА : FILE "Имя файла с раширением [u].flac;.ape;.m4a;.mp3" WAVE
сам забыл кавычки поставить

Добавлено спустя 9 минут 47 секунд:
у ОБРАБАТЫВАЕМОГО ФАЙЛА, расширение, случайно/специально не изменял? - Опять будет ошибка:
EAC проверяет действительный формат файла!
Yurnikos
Гость

Сообщение #20 RoDion » 15.01.2015, 09:34

guest, Yurnikos,

не помогло данное решение!!! заменить окончание строки на WAVE
RoDion
Автор темы
Репутация: 0
С нами: 6 лет 9 месяцев

След.

Вернуться в Есть вопрос!