Library и CUE

Список разделов Аудиоплеер foobar2000 Есть вопрос!

Описание: У вас проблемы с foobar2000 и вам необходима помощь? Спрашивайте здесь!
Правила раздела: Одна тема — один вопрос или группа связанных вопросов. Обязательно формируйте внятный заголовок, максимально отражающий суть. Подробно описывайте проблему. Не забывайте указать версию плеера, название сборки, по возможности добавить скриншоты проблемы.

Сообщение #1 Max163 » 14.09.2015, 13:51

Здравствуйте!

Library настроена на папку с музыкальными образами.
В случае добавления из Album List через Send To Current Playlist альбом отображается, как один трек без указания артиста и альбома.
Если же запустить двойным кликом CUE, то в плейлист попадают все композиции с указанием артиста и альбома.
Как сделать так, чтобы то же самое происходило из Album List?

2015-09-14 13-47-08 Roger Waters - Amused To Death   [foobar2000 v1.3.8].png
Через Send To Current Playlist
2015-09-14 13-47-08 Roger Waters - Amused To Death [foobar2000 v1.3.8].png (4.36 КБ) Просмотров: 3036


2015-09-14 13-49-55 Roger Waters - [Amused To Death #01] The Ballad Of Bill Hubbard   [foobar2000 v1.3.8].png
Через Проводник
Max163
Автор темы
Репутация: 8
С нами: 7 лет 5 месяцев

Сообщение #2 vladj » 14.09.2015, 13:59

Образы в чем ? В альбом листе сортировку по папкам, CUE в настройках убрать в двух местах, запускать в альбомлисте
двойным по папке, имхо.PS. Если образы в DVDA (.iso), то в компоненты плагин foo_input_dvda.dll положить.
Последний раз редактировалось vladj 14.09.2015, 14:03, всего редактировалось 1 раз.
HTPC Termaltake, eGlobal i5-7200, Asrock Beebox J3160, Onkyo 525E, цап SMSL, фронт Yamaha 8900.
vladj M
Аватара
Откуда: Пермский край
Репутация: 422
С нами: 11 лет 7 месяцев

Сообщение #3 Max163 » 14.09.2015, 14:02

Образы FLAC, APE
В каких местах убрать CUE? :oops:
Max163
Автор темы
Репутация: 8
С нами: 7 лет 5 месяцев

Сообщение #4 vladj » 14.09.2015, 14:07

В настройках вывода звука и в настройках файловых ассоциаций (Shell). Убрать там CUE из исключений.
HTPC Termaltake, eGlobal i5-7200, Asrock Beebox J3160, Onkyo 525E, цап SMSL, фронт Yamaha 8900.
vladj M
Аватара
Откуда: Пермский край
Репутация: 422
С нами: 11 лет 7 месяцев

Сообщение #5 Max163 » 14.09.2015, 14:28

Убрал исключение CUE в Shell Integration и в Media Library
Установил плагин foo_cuefilter
Осталась проблема с самими CUE. Если в CUE указан WAV файл, то FLAC через Media Library не добавляется, но добавляется через проводник.
Если поправить в CUE WAV на FLAC в переменной FILE "Roger Waters - Amused To Death.flac" WAVE, то добавляется нормально.
И еще не понял, как добавлять двойным кликом по папке в Media Library? У меня раскрывается сама папка.
Max163
Автор темы
Репутация: 8
С нами: 7 лет 5 месяцев

Сообщение #6 Yurnikos » 14.09.2015, 14:42

Многие юзвери фу (кроме меня) используют плагин "foo_cuefilter" - про его настройки
соответственно ничего не скажу.
Спойлер
Max163:Образы FLAC, APE
Имеет значение, если образы предназначены к раздачам на трекерах ?
Если нет, то убрать " *.cue " в настройках библиотеки из "Исключений" и в Shell Integrations.
тогда твои "образы альбомов" будут "раздвоившимися": сам файл альбома + по-треково из куй-файла,
что тоже "не гуд"

Мой вариант - (трудоёмкий!!!):
снабдить все папки с по-трековыми файлами куй-файлами,, если таковые таки есть;
образы альбомов, как правило, уже снабжены куй-файлами,
после чего я "добавил" в выше указанных настройках файлы FLAC, APE - в исключения,
а куй-файлы оставил.

Добавлено спустя 15 минут 29 секунд:
Max163:самое происходило из Album List?
В моём случае - альбом открывается по-треково, без "раздвоения" из Album List, пр.кнопой мыши
командой Send to Autosend playlist с именем, указанным в настройках библиотеки
Yurnikos
Гость

Сообщение #7 vladj » 14.09.2015, 15:09

Правой по панели альбом листа, там настроить действие по двойному (в Settings)...Отправить в автоплейлист.
Там-же в Advanced галочку на автовоспроизведение при отправке в плейлист.
HTPC Termaltake, eGlobal i5-7200, Asrock Beebox J3160, Onkyo 525E, цап SMSL, фронт Yamaha 8900.
vladj M
Аватара
Откуда: Пермский край
Репутация: 422
С нами: 11 лет 7 месяцев

Сообщение #8 Max163 » 14.09.2015, 15:44

Либо я туплю, либо у меня нет таких настроек :insane:

2015-09-14 15-42-39 Скриншот экрана.png
2015-09-14 15-42-39 Скриншот экрана.png (7.24 КБ) Просмотров: 2994
Max163
Автор темы
Репутация: 8
С нами: 7 лет 5 месяцев

Сообщение #9 vladj » 14.09.2015, 15:55

Да не тупишь...у нас вроде как два альбом листа существуют...обычно они парой и в сборках встречаются,
я речь веду о том, который на плагине foo_uie_albumlist основан. Кстати удивляет, что за полтора года
ты с дефолтного интерфейса не спрыгнул :smile:
HTPC Termaltake, eGlobal i5-7200, Asrock Beebox J3160, Onkyo 525E, цап SMSL, фронт Yamaha 8900.
vladj M
Аватара
Откуда: Пермский край
Репутация: 422
С нами: 11 лет 7 месяцев

Сообщение #10 Max163 » 14.09.2015, 17:01

Поставил сборку DarkOne Universal by Megane
Оказывается я никогда не пользовался foobar2000 :razz: :oops:
Max163
Автор темы
Репутация: 8
С нами: 7 лет 5 месяцев

Сообщение #11 Max163 » 15.09.2015, 23:12

Продолжаю воевать с CUE
Проблема возникла с потрековыми образами. Если образ единым файлом, то foobar его нормально воспринимает, если образ потрековый и к нему есть CUE, то при запуске foobar пишет "Unable to open item for playback (Error parsing cuesheet: invalid index list (line 39)):"
Max163
Автор темы
Репутация: 8
С нами: 7 лет 5 месяцев

Сообщение #12 Yurnikos » 16.09.2015, 04:22

Max163:(Error parsing cuesheet: invalid index list (line 39)):"
Скопируй "инвалидную" строку сюда, посмотрим, что с ней не так
Спойлер
Вообще, таком случае, 2 пути:
1.Открыть такой куй в "блокноте" - проверить строку #39, что с ней не так,
Времена в строке "INDEX ??" куй файла, тоже должны ВОЗРАСТАТЬ,
начиная с 00:00:00 для 1-го трека
2.Открыть куй в сторонней программе, тут Советчиков с советами хватает.
Я тоже, бывает, долго не могу "догадаться", в чём дело . . .
Иногда помогает открытие куй-файла программой "EAC", оная умеет находить
нужную строку.
Yurnikos
Гость

Сообщение #13 Max163 » 16.09.2015, 09:30

Вот весь КУЙ

Спойлер
REM GENRE Jazz
REM DATE 1992
REM DISCID 9D0ECB0B
REM COMMENT "ExactAudioCopy v0.95b3"
PERFORMER "The Brecker Brothers"
TITLE "Return Of The Brecker Brothers"
FILE "The Brecker Brothers - Return Of The Brecker Brothers (1992) [FLAC]\01 - Song For Barry.flac" WAVE
TRACK 01 AUDIO
TITLE "Song For Barry"
PERFORMER "The Brecker Brothers"
INDEX 01 00:00:00
FILE "The Brecker Brothers - Return Of The Brecker Brothers (1992) [FLAC]\02 - King Of The Lobby.flac" WAVE
TRACK 02 AUDIO
TITLE "King Of The Lobby"
PERFORMER "The Brecker Brothers"
INDEX 01 00:00:00
FILE "The Brecker Brothers - Return Of The Brecker Brothers (1992) [FLAC]\03 - Big Idea.flac" WAVE
TRACK 03 AUDIO
TITLE "Big Idea"
PERFORMER "The Brecker Brothers"
INDEX 01 00:00:00
FILE "The Brecker Brothers - Return Of The Brecker Brothers (1992) [FLAC]\04 - Above & Below.flac" WAVE
TRACK 04 AUDIO
TITLE "Above & Below"
PERFORMER "The Brecker Brothers"
INDEX 01 00:00:00
FILE "The Brecker Brothers - Return Of The Brecker Brothers (1992) [FLAC]\05 - Thats All There Is To It.flac" WAVE
TRACK 05 AUDIO
TITLE "Thats All There Is To It"
PERFORMER "The Brecker Brothers"
INDEX 01 00:00:00
TRACK 06 AUDIO
TITLE "Wakaria (Whats Up)"
PERFORMER "The Brecker Brothers"
INDEX 00 05:27:12
FILE "The Brecker Brothers - Return Of The Brecker Brothers (1992) [FLAC]\06 - Wakaria (Whats Up).flac" WAVE
INDEX 01 00:00:00
FILE "The Brecker Brothers - Return Of The Brecker Brothers (1992) [FLAC]\07 - On The Backside.flac" WAVE
TRACK 07 AUDIO
TITLE "On The Backside"
PERFORMER "The Brecker Brothers"
INDEX 01 00:00:00
FILE "The Brecker Brothers - Return Of The Brecker Brothers (1992) [FLAC]\08 - Sozinho (Alone).flac" WAVE
TRACK 08 AUDIO
TITLE "Sozinho (Alone)"
PERFORMER "The Brecker Brothers"
INDEX 01 00:00:00
TRACK 09 AUDIO
TITLE "Spherical"
PERFORMER "The Brecker Brothers"
INDEX 00 07:34:65
FILE "The Brecker Brothers - Return Of The Brecker Brothers (1992) [FLAC]\09 - Spherical.flac" WAVE
INDEX 01 00:00:00
FILE "The Brecker Brothers - Return Of The Brecker Brothers (1992) [FLAC]\10 - Good Gracious.flac" WAVE
TRACK 10 AUDIO
TITLE "Good Gracious"
PERFORMER "The Brecker Brothers"
INDEX 01 00:00:00
FILE "The Brecker Brothers - Return Of The Brecker Brothers (1992) [FLAC]\11 - Roppongi.flac" WAVE
TRACK 11 AUDIO
TITLE "Roppongi"
PERFORMER "The Brecker Brothers"
INDEX 01 00:00:00

Открыл в EAC.
Он сначала ругнулся на то, что файл не найден.
Удалил из полей FILE папку "The Brecker Brothers - Return Of The Brecker Brothers (1992) [FLAC]\"
Затем EAC ругнулся на то, что не поддерживает FLAC.
Распаковал и EAC показал индексную карту полностью, но foobar по прежнему не хочет в упор видеть :sad:

2015-09-16 10-02-59 Редактор макета CD.png
Max163
Автор темы
Репутация: 8
С нами: 7 лет 5 месяцев

Сообщение #14 Yurnikos » 16.09.2015, 10:16

Max163:Вот весь КУЙ
Как я понимаю, "весь КУЙ" составлен по "абсолютным неполным",
путям к непосредственным файлам, что не есть "гуд" . . .
Моё "ИМХО" :
Спойлер
Скопируй куй в блокноте в отдельный файл,
Вручную, удали путь к папке "The Brecker Brothers - Return Of The Brecker Brothers (1992) [FLAC]\",
Поменяй имена у оригинального куя, на имя копии, положи отредактированный куй в папку с
конкретными файлами и тебе (фу!) наступит счастье . . .
ЗЫ. У меня-БЫ !, рабочий куй получил имя "Return Of The Brecker Brothers--.cue",
В библиотеке, ИЗ ИСКЛЮЧЕНИЙ _Exclude_, удаляю *.cue,
в окне _Restrict to:_ вставляю "*--.cue;" {без плагина куй-фильтра}
А лучше, создать новый куй, с помощью фу, положить в папку с конкретными файлами,
удобнее, под именем альбома (в данном случае, возможно с именем 1-ой директории выше непосредственной)
ЗЫзы.Прошу пардону за длинноту
Yurnikos
Гость

Сообщение #15 Max163 » 16.09.2015, 10:27

Yurnikos:Вручную, удали путь к папке "The Brecker Brothers - Return Of The Brecker Brothers (1992) [FLAC]\",

Не помогает

Спойлер
REM GENRE Jazz
REM DATE 1992
REM DISCID 9D0ECB0B
REM COMMENT "ExactAudioCopy v0.95b3"
PERFORMER "The Brecker Brothers"
TITLE "Return Of The Brecker Brothers"
FILE "01 - Song For Barry.flac" WAVE
TRACK 01 AUDIO
TITLE "Song For Barry"
PERFORMER "The Brecker Brothers"
INDEX 01 00:00:00
FILE "02 - King Of The Lobby.flac" WAVE
TRACK 02 AUDIO
TITLE "King Of The Lobby"
PERFORMER "The Brecker Brothers"
INDEX 01 00:00:00
FILE "03 - Big Idea.flac" WAVE
TRACK 03 AUDIO
TITLE "Big Idea"
PERFORMER "The Brecker Brothers"
INDEX 01 00:00:00
FILE "04 - Above & Below.flac" WAVE
TRACK 04 AUDIO
TITLE "Above & Below"
PERFORMER "The Brecker Brothers"
INDEX 01 00:00:00
FILE "05 - Thats All There Is To It.flac" WAVE
TRACK 05 AUDIO
TITLE "Thats All There Is To It"
PERFORMER "The Brecker Brothers"
INDEX 01 00:00:00
TRACK 06 AUDIO
TITLE "Wakaria (Whats Up)"
PERFORMER "The Brecker Brothers"
INDEX 00 05:27:12
FILE "06 - Wakaria (Whats Up).flac" WAVE
INDEX 01 00:00:00
FILE "07 - On The Backside.flac" WAVE
TRACK 07 AUDIO
TITLE "On The Backside"
PERFORMER "The Brecker Brothers"
INDEX 01 00:00:00
FILE "08 - Sozinho (Alone).flac" WAVE
TRACK 08 AUDIO
TITLE "Sozinho (Alone)"
PERFORMER "The Brecker Brothers"
INDEX 01 00:00:00
TRACK 09 AUDIO
TITLE "Spherical"
PERFORMER "The Brecker Brothers"
INDEX 00 07:34:65
FILE "09 - Spherical.flac" WAVE
INDEX 01 00:00:00
FILE "10 - Good Gracious.flac" WAVE
TRACK 10 AUDIO
TITLE "Good Gracious"
PERFORMER "The Brecker Brothers"
INDEX 01 00:00:00
FILE "11 - Roppongi.flac" WAVE
TRACK 11 AUDIO
TITLE "Roppongi"
PERFORMER "The Brecker Brothers"
INDEX 01 00:00:00

2015-09-16 10-27-13 foobar2000.png
Max163
Автор темы
Репутация: 8
С нами: 7 лет 5 месяцев

Сообщение #16 Yurnikos » 16.09.2015, 11:04

Max163:Вручную, удали путь к папке. . . "The
В связи с тем, что куй создан "кривой прогой" типа куйТУЛЗ,
Ошибка: Неверное имя файла для трека, ИМХО, "TRACK 07 AUDIO"
или скопировать имя файла вместе с расширением для "TRACK 07 AUDIO"
быстрей пересоздать заново, помощью фу, весь куй, чем "гадать", где ошибка

Добавлено спустя 1 минуту 36 секунд:
Yurnikos:скопировать имя файла вместе с расширением для "TRACK 07 AUDIO"
и вставить в кривом куе для этого трека

Добавлено спустя 8 минут 29 секунд:
Max163:Продолжаю воевать с CUE
Стандарт для по-трековых куй-файлов

REM GENRE Pop
REM DATE 1900
REM COMMENT рождённый ползать - не летает!
PERFORMER "для миксов VA или Various Artist"
TITLE "Имя -альбома"
FILE "Имя файла-track 01.*" WAVE
TRACK 01 AUDIO
TITLE "Имя трека"
PERFORMER "Artist tr.1"
INDEX 01 00:00:00
FILE "Имя файла-track 02.*" WAVE
TRACK 02 AUDIO
TITLE "Имя трека"
PERFORMER "Artist tr.2"
INDEX 01 00:00:00
FILE "Имя файла-track 03.*" WAVE
TRACK 03 AUDIO
TITLE "Имя трека"
PERFORMER "Artist 3"
INDEX 01 00:00:00

итд

Добавлено спустя 12 минут 38 секунд:
Max163:Распаковал и EAC показал индексную карту полностью
Это называется "парсить-прочитал", а сохранить уже полностью прочитанный EAC
куй-файл под новым именем не догадался?
а проверить расширения указанных в прочитанном EAC-ом куе файлов?
Yurnikos
Гость

Сообщение #17 Max163 » 16.09.2015, 12:09

Yurnikos:создать новый куй, с помощью фу
Можно подробнее, как это сделать?
Max163
Автор темы
Репутация: 8
С нами: 7 лет 5 месяцев

Сообщение #18 vladj » 16.09.2015, 12:23

Если образ разбит по трекам и ты не собираешся его записывать на болванку вынеси временно CUE в сторону
и попробуй без него. Споры по нужности CUE ведутся давно потому как часто кривые попадаются, как в твоем
случае и это мешает.
HTPC Termaltake, eGlobal i5-7200, Asrock Beebox J3160, Onkyo 525E, цап SMSL, фронт Yamaha 8900.
vladj M
Аватара
Откуда: Пермский край
Репутация: 422
С нами: 11 лет 7 месяцев

Сообщение #19 Yurnikos » 16.09.2015, 12:39

Max163:Можно подробнее, как это сделать?
Загрузи по-трековые файлы в плейлист, выдели все, ПКМ на выделенных,
сохранить как cue, изменить путь на реальную директорию, изменить имя куй-файла,
на удобное для тебя. Всё.
В картинках показывать, пардон, пока не научился . . .
Yurnikos
Гость

Сообщение #20 vladj » 16.09.2015, 12:52

Это можно проделать на дефолтном фубаре, без никаких дополнительных плагинов ? Сорри, посмотрел
у себя и понял что это невозможно, в сборке нужен какой-то плагин для этого, потому советуя указывай
на нужный плагин. Не у всех набор плагинов как у тебя :smile:
Ему проще открыть в плейлисте все треки и взяв оттуда (проигрывая) время внести его в куи,
у него там индексы времени по нулям.
HTPC Termaltake, eGlobal i5-7200, Asrock Beebox J3160, Onkyo 525E, цап SMSL, фронт Yamaha 8900.
vladj M
Аватара
Откуда: Пермский край
Репутация: 422
С нами: 11 лет 7 месяцев

След.

Вернуться в Есть вопрос!