Ретрекинг FLAC

Список разделов Аудиоплеер foobar2000 Есть вопрос!

Описание: У вас проблемы с foobar2000 и вам необходима помощь? Спрашивайте здесь!
Правила раздела: Одна тема — один вопрос или группа связанных вопросов. Обязательно формируйте внятный заголовок, максимально отражающий суть. Подробно описывайте проблему. Не забывайте указать версию плеера, название сборки, по возможности добавить скриншоты проблемы.

Сообщение #1 Konsta » 13.06.2016, 13:20

Приветствую!
Прошу простить, если вопрос не в тему - пока только осваиваю.
Насколько я понял, foobar2000 поддерживает функцию редактирования. В меня есть и кроп.
Но не получилось использовать.
Есть 2 файла: .flac и .cue
Там несколько треков. Мне же нужно переделить звук по новому. Или, хотя бы, разбить имеющиеся треки на части.
Если это возможно, прошу подсказать - как это сделать.
Konsta
Автор темы
Репутация: 2
С нами: 5 лет 3 месяца

Сообщение #2 vladj » 13.06.2016, 13:43

Запускай альбом на воспроизведение, выделяй все треки в плейлисте, по выделенному щелчёк правой при зажатом
левом шифте, там конвертировать и по нижней строчке с троеточием.
Устанавливаешь требуемый выходной формат, при вопросе о плагине указываешь на него, он в папке фубара (encoders).
Разрядность оставляй в Авто, затем внизу кнопка Назад. Затем указываешь где сохранить разбитый по трекам альбом и
как обозвать треки...справа по троеточию и там варианты, внизу предварительный просмотр как будет выглядеть...Назад.
В двух опциях ниже можно ответить ничего не делать...ну и внизу - конвертировать.
Не известно на каком фубаре едешь, какой плейлист в работе потому и методы выделения треков альбома могут быть разными.
HTPC Termaltake, eGlobal i5-7200, Asrock Beebox J3160, Onkyo 525E, цап SMSL, фронт Yamaha 8900.
vladj M
Аватара
Откуда: Пермский край
Репутация: 422
С нами: 11 лет 7 месяцев

Сообщение #3 Konsta » 13.06.2016, 14:09

Спасибо, но не понял как переделить треки.
Сейчас вижу те же названия треков, что и в оригинале.
Понятно, что можно расшить. Но не понятно, как разбить готовый трек.
Т.е. мне нужно разбить 1 трек на 2-3. А, еще лучше, сделать новый трек-лист на основе трекированного альбома.
Версия 1.3.9.
Konsta
Автор темы
Репутация: 2
С нами: 5 лет 3 месяца

Сообщение #4 vladj » 13.06.2016, 16:26

Konsta:Но не понятно, как разбить готовый трек
Разбивают потреково не трек, а образ CD диска. Каждый трек имеет своё
название, которое берётся из файла CUE, который лежит в альбоме рядом с образом.
Обозвать трек можно комбинируя из предлагаемого.
Насчёт нового CUE...ты сначала разберись с тем как разбивать а потом уже будешь менять теги
изменяя CUE с помощью или плагинов или сторонних программ.
Но обычно всё в CUE уже присутствует нужное....что там переделывать то ?
ScreenShot42.jpg
HTPC Termaltake, eGlobal i5-7200, Asrock Beebox J3160, Onkyo 525E, цап SMSL, фронт Yamaha 8900.
vladj M
Аватара
Откуда: Пермский край
Репутация: 422
С нами: 11 лет 7 месяцев

Сообщение #5 Konsta » 13.06.2016, 17:11

Да, я в курсе всего этого. Делал flac с дисков в ЕАС.
Но задача состоит в том, чтобы пересоздать трековую структуру под свои задачи.
Мой вопрос был связан с тем, что я обнаружил в foobar2000 функцию "crop".
Много инфы перекопал и запутался окончательно.
Итак, есть 2 комплекта .flac и .cue, снятые с CD (одно произведение, 2 диска).
Меня не устраивает разбивка на треки.
Желательно: сделать новую разбивку и объединить всё в 1 треклист.
Допустимо: разбить существующие треки.
Если это можно сделать, прошу подсказать как это сделать, а то уже мозг кипит (((
Konsta
Автор темы
Репутация: 2
С нами: 5 лет 3 месяца

Сообщение #6 vladj » 13.06.2016, 17:52

Konsta:Меня не устраивает разбивка на треки.
Запустил образ одного диска (издание двухдисковое, в каждом много треков), добавил в плейлист второй образ.
Выделил весь плейлист и в настройках конвертера отметил Объединить все треки в один файл. Сконвертил и получил
один файл-трек с названием имидж. Название заменил на то как называется издание.
Таким образом получил один образ из двух, файл CUE в данном случае не создаётся и не нужен,т.к. имеем один трек.
Я это проделал сейчас практически за пару минут и вообще утомился полностью осознать твою хотелку...умываю руки :smile:
HTPC Termaltake, eGlobal i5-7200, Asrock Beebox J3160, Onkyo 525E, цап SMSL, фронт Yamaha 8900.
vladj M
Аватара
Откуда: Пермский край
Репутация: 422
С нами: 11 лет 7 месяцев

Сообщение #7 Konsta » 13.06.2016, 18:09

Я ж русским по белому пишу - мне треки нужны, но другие... И CUE нужен.
Мне не нужен 1 трек. 1 трек делается гораздо проще - конвертированием в Total Audio Converter, например.
Я об этом уже 3-й раз пишу....
CUE редактируется элементарно, но в нем должно быть столько же треков, сколько в аудио. С помощью CUE треки не режутся.
Konsta
Автор темы
Репутация: 2
С нами: 5 лет 3 месяца

Сообщение #8 vladj » 13.06.2016, 20:08

Konsta:CUE редактируется элементарно, но в нем должно быть столько же треков, сколько в аудио
Сумбур какой-то в этом предложении... "сколько в аудио", а в видео получается ни сколько ? :smile:
Konsta:С помощью CUE треки не режутся
Хм... чем основывается конвертер фубара (речь о нём, а не о сторонних программах) при разбивке
образа на отдельные треки. Блин, такое ощущение что младшеклассник пишет, который внятно не может описать
что ему нужно сделать. Не насторожило, что никто больше не подписался на помощь ? Это мне, пенсионеру , делать нех
и я могу выделить время на пустое шлёпанье по клавишам :smile:
HTPC Termaltake, eGlobal i5-7200, Asrock Beebox J3160, Onkyo 525E, цап SMSL, фронт Yamaha 8900.
vladj M
Аватара
Откуда: Пермский край
Репутация: 422
С нами: 11 лет 7 месяцев

Сообщение #9 Konsta » 13.06.2016, 22:26

Дорогой Вы мой пенсионер, а прочитать один раз то, что написано, а не глянуть по диагонали?
4 раза четко написал. Последний раз выделил. Ну ка еще???
Ну не обижайтесь... Я четко сформулировал задачу. Знаете как решить - буду дико рад и благодарен, не знаете, ну не судьба. А, на счет возраста - мерси за комплеман )))
Konsta
Автор темы
Репутация: 2
С нами: 5 лет 3 месяца

Сообщение #10 Sadovnik Muller » 13.06.2016, 22:50

Konsta:4 раза четко написал.
Где-то в параллельной Вселенной...
Konsta:мне треки нужны, но другие...
есть 2 комплекта .flac и .cue, снятые с CD (одно произведение, 2 диска)
Это как у Вас в башке-то укладывается и не разрывает её?
Как я понял из потоков Вашего сознания - нужен 1 куе для 2-х флаков?
Konsta:С помощью CUE треки не режутся.
Это с чего Вы взяли? Именно при помощи куе - я другого не знаю.
PS. Хамить помогающему=не получить помощи.
Sadovnik Muller M
Аватара
Репутация: 12
С нами: 5 лет 3 месяца

Сообщение #11 Konsta » 13.06.2016, 23:11

ох )))
Не хамил, и в мыслях не было! Если так восприняли, приношу извинения!
Нужен 1 флак (но многотрековый!), 1 куе. Первоисточник - 2 CD. Исходник 2 куе и 2 флака.
Тема называется "Ретрекинг". Меня не устраивают те треки, которые есть. Мне не нужно объединять их в одной паре куе+флак. Мне нужно из каждого трека сделать 2-3. В итоге, вместо 16 треков (суммарно), будет около 40.

С чего взял. Я писал куе руками не раз. Откройте любым текстовым редактором и увидите, насколько он прост.
Но, если Вы в нем, вместо 10 треков пропишите 11, честно разделив между ними таймлайн, ничего не выйдет. Куе создается уже на основе разделителей в звуковом файле. Он лишь оглавление.
Konsta
Автор темы
Репутация: 2
С нами: 5 лет 3 месяца

Сообщение #12 Nikolaich » 13.06.2016, 23:31

Konsta:Итак, есть 2 комплекта .flac и .cue, снятые с CD (одно произведение, 2 диска).
Меня не устраивает разбивка на треки.
Желательно: сделать новую разбивку и объединить всё в 1 треклист.
Допустимо: разбить существующие треки.
Если это можно сделать, прошу подсказать как это сделать, а то уже мозг кипит
"сделать новую разбивку и объединить всё в 1 треклист" : имхо, ты "описялся" - тебе нужен
ОДИН ОБЩИЙ КУЙ-ФАЙЛ ДЛЯ ОБОИХ АЛЬБОМОВ - ТАК? Если так, то
тогда моё предложение :
1. создать в блокноте текст-файл, поменять расширение *.txt на *.cue
2.выбрать имя для нового куй-файла, открыть его для редактирования в блокноте-же,
3.копировать содержание куя для 1-го альбома,
4.вставить в конец общего куя содержание куя для 2-го альбома, - сохранить. всё.
Это будет примерно так:
Спойлер
REM DATE 19хх
PERFORMER "имя общего артиста для обоих альбомов {_если артисты разные-строку изменить на VA_}"
TITLE "Da ist Musik Drin!"
FILE "имя flac-файла 1-го альбома" WAVE
TRACK 01 AUDIO
TITLE "имя трека"
PERFORMER "имя артиста"
INDEX 01 00:00:00
TRACK 02 AUDIO
TITLE "имя трека2"
INDEX 01 00:00:00
. . . . .
предположим, последний трек 1-го альбома
TRACK 12 AUDIO
TITLE "имя трека2"
INDEX 01 00:00:00
FILE "имя flac-файла 2-го альбома" WAVE
TRACK 13 AUDIO
TITLE "имя трека1 `во 2-м альбоме"
INDEX 01 00:00:00
TRACK 14 AUDIO
TITLE "имя трека2 `во 2-м альбоме"
INDEX 01 00:00:00
и так далее. . .
и последнее - проследить, чтобы расширение имени файлов альбомов соответствовало
С фубаром дружу с версии v_0.8.3 !
Nikolaich M
Откуда: Пермь
Репутация: 16
С нами: 12 лет 4 месяца

Сообщение #13 Konsta » 13.06.2016, 23:46

ОДИН ОБЩИЙ КУЙ-ФАЙЛ ДЛЯ ОБОИХ АЛЬБОМОВ - ТАК?
Это только часть задачи и не главная. И решена была сходу.
Нет, так не получится. Нужно во второй части добавить строку:
FILE "тттт.flac" WAVE с именем второго flac-а
Но главное не это: мне мало объединить имеющиеся треки. Мне нужно сделать их больше. Ну, например, первый трек имеет длительность 4 минуты, а мне нужно из него сделать 3 трека: 00:00:00-00:01:00, 00:01:00-00:02:00, 00:02:00-00:04:00 и так далее...

А кто-то вообще использовал функцию Crop?
Konsta
Автор темы
Репутация: 2
С нами: 5 лет 3 месяца

Сообщение #14 Nikolaich » 14.06.2016, 11:00

Konsta:Нужно во второй части добавить строку:
и да, пропущено мной (хотя, "вставить содержание куя для 2-го альбома" ведь было ?)
Konsta:длительность 4 минуты, а мне нужно из него сделать 3 трека:
так сделай, какая проблема:
Спойлер
FILE "имя flac-файла 1-го альбома" WAVE
TRACK 01 AUDIO
TITLE "имя 1-й ЧАСТИ трека 1 оригинала "
PERFORMER "имя артиста, если необходимо"
INDEX 01 00:00:00
TRACK 02 AUDIO
TITLE "имя 2-й ЧАСТИ трека 1 оригинала "
PERFORMER "имя артиста, если необходимо"
INDEX 01 00:00:00
TRACK 03 AUDIO
TITLE "имя 3-й ЧАСТИ трека 1 оригинала "
PERFORMER "имя артиста, если необходимо"
INDEX 01 00:00:00
а вот с "INDEX"-ами "повоюй" самостоятельно. . .
тырнет тебе в помощь;

только, времена новых разбитых треков по новым индексам
должны соответствовать времени 1-го основного трека.
ЗЫ. я, первое время, для такой разбивки, пользовался "Саунд-форжем",
теперь - только с помощью фу
(не нужно пользоваться ворованными программами);
некоторые неудобства вызывает адаптация времени в СИК-баре фу к временам для индексов;
особенно, если необходимы паузы меж вновь создаваемыми треками;
и, ежели, необходимы затухания в концах новых треков и нарастания громкостей в началах треков,
необходимы нужные программы;
Konsta:А кто-то вообще использовал функцию Crop?
"Crop" - удаляет из АКТИВНОГО плейлиста ВЫДЕЛЕННЫЕ ТРЕКИ,
я - нет, такой необходимости у меня нет, достаточно функций "Remove" и "Cut"
С фубаром дружу с версии v_0.8.3 !
Nikolaich M
Откуда: Пермь
Репутация: 16
С нами: 12 лет 4 месяца

Сообщение #15 Konsta » 14.06.2016, 11:25

так сделай, какая проблема:
проблема в том, что, как уже писал, это НЕ РАБОТАЕТ
флак - это контейнер - архив, в котором лежит оригинальная нарезка треков, а куе лишь карта, которая сообщает проигрывателю их координаты
если карта не будет соответствовать местности, проигрыватель это сразу обнаружит и пошлет...
"Crop" - удаляет из АКТИВНОГО плейлиста ВЫДЕЛЕННЫЕ ТРЕКИ
Спасибо!
Видимо, средствами foobar2000 эта задача не решается. Придется разворачивать архив с конвертацией в другой формат, который можно нарезать
Konsta
Автор темы
Репутация: 2
С нами: 5 лет 3 месяца

Сообщение #16 Nikolaich » 14.06.2016, 12:51

Видимо, средствами foobar2000 эта задача не решается. Придется разворачивать архив с конвертацией в другой формат, который можно нарезать
Только средствами фу твоя задача РЕШАЕТСЯ, только требует некоторого времени и знаний
Воля твоя, ежели моих "ц.у." тебе недостаточно, только :
"переразворачивание" из одного формата в другой НЕ ПОМОЖЕТ решению поставленной тобой задачи,
а лишь ухудшит "каКчество" исходного формата :
читай раздел "конвертирование" в "Энциклопедии" (кнопа в заголовке сайта) - кладезь знаний юзверей foobar2000
и ещё про куй-файл тут
если карта не будет соответствовать местности, проигрыватель это сразу обнаружит и пошлет...
Согласен на 100%.
Вот только <<создание макета этой "местности">> таки в твоих руках !
С фубаром дружу с версии v_0.8.3 !
Nikolaich M
Откуда: Пермь
Репутация: 16
С нами: 12 лет 4 месяца

Сообщение #17 Konsta » 14.06.2016, 13:19

а лишь ухудшит "каКчество" исходного формата
если из лослеса в лослес не ухудшится
читай раздел "конвертирование" в "Энциклопедии" (кнопа в заголовке сайта) - кладезь знаний юзверей foobar2000
и ещё про куй-файл тут
спасибо, изучу
Вот только <<создание макета этой "местности">> таки в твоих руках !
так а я о чем?
Воля твоя, ежели моих "ц.у." тебе недостаточн
Я не видел ни одного цу как разделить трек на части. Или упустил?
Konsta
Автор темы
Репутация: 2
С нами: 5 лет 3 месяца

Сообщение #18 Nikolaich » 14.06.2016, 13:49

[quote=]Или упустил?[/quote] Имхо, упустил
Пример под спойлером для 1-го трека, 1-го альбома.
Далее читаешь о формировании "INDEX"-ов (их три, INDEX 00, INDEX 01 и INDEX 02, применяются, имхо, только ДВА=INDEX 00, INDEX 01)
Ещё пример:
Спойлер
REM GENRE Instrumental
PERFORMER "Robert Last"
TITLE "Moscov-album"
FILE "Robert Last-Moscow Album-Image!.flac" WAVE
TRACK 01 AUDIO
TITLE "Moscow by night"
INDEX 01 00:00:00
TRACK 02 AUDIO
TITLE "Cazachok"
INDEX 01 01:17:02
TRACK 03 AUDIO
TITLE "Black Eyes"
INDEX 01 02:30:15
TRACK 04 AUDIO
TITLE "Two Guitars"
INDEX 01 03:47:59
тут пример применения "INDEX 01", треки идут без межтрековых пауз (в паузах - аплодисменты слушателей, по ним и поделено)
далее, для твоего, ИМХО, случая, будет
TRACK 05 AUDIO
TITLE "Name"
INDEX 01 (предположительно) 03:51:11
. . . . . .
как-то так !
С фубаром дружу с версии v_0.8.3 !
Nikolaich M
Откуда: Пермь
Репутация: 16
С нами: 12 лет 4 месяца

Сообщение #19 Konsta » 14.06.2016, 14:10

Прочитал еще раз. Ничего нового не открыл. Индексы описывают то, что есть. Но, если сделать так, как вы предлагаете,
Спойлер
было
PERFORMER "Robert Last"
TITLE "Moscov-album"
FILE "Robert Last-Moscow Album-Image!.flac" WAVE
TRACK 01 AUDIO
TITLE "Moscow by night"
INDEX 01 00:00:00
TRACK 02 AUDIO
TITLE "ххх"
INDEX 01 03:51:11

стало

PERFORMER "Robert Last"
TITLE "Moscov-album"
FILE "Robert Last-Moscow Album-Image!.flac" WAVE
TRACK 01 AUDIO
TITLE "Moscow by night"
INDEX 01 00:00:00
TRACK 02 AUDIO
TITLE "Cazachok"
INDEX 01 01:17:02
TRACK 03 AUDIO
TITLE "Black Eyes"
INDEX 01 02:30:15
TRACK 04 AUDIO
TITLE "Two Guitars"
INDEX 01 03:47:59
TRACK 05 AUDIO
TITLE "Name"
INDEX 01 03:51:11
ничего не выйдет. Попробуйте и убедитесь в этом сами.
Причина в том, что:
INDEX <номер> <мм:сс:фф>
Указывает начальную позицию внутри аудиофайла, где начинается данный трек (относительно начала файла)
Трек есть, есть его адрес в таймлайне, это и описывает INDEX (ну и паузы). INDEX не позволяет задать начало и конец прослушивания трека.
Konsta
Автор темы
Репутация: 2
С нами: 5 лет 3 месяца

Сообщение #20 Nikolaich » 14.06.2016, 14:56

Это из википедии
INDEX <номер> <мм:сс:фф>
Указывает начальную позицию внутри аудиофайла, где начинается данный трек (относительно начала файла) в формате минута:секунда:фрейм (например 04:18:63 = 4 минуты, 18 секунд, 63 фрейма). Согласно стандарту CDDA, в одной секунде 75 фреймов (0..74). Команда INDEX 01 — обязательная, она указывает начало трека. Команда INDEX 00 — необязательная, она определяет так называемый pregap (англ.) (предшествующий зазор). При использовании с TRACK 01 (первым треком) INDEX 00 будет обозначать начало скрытого лидирующего трека (Hidden Track One Audio (HTOA) (англ.)), найти который, например, на аудио-CD можно только перемоткой назад сразу после начала воспроизведения.
и почитай уже тут - "разжёвано" до буквы с примерами
С фубаром дружу с версии v_0.8.3 !
Nikolaich M
Откуда: Пермь
Репутация: 16
С нами: 12 лет 4 месяца

След.

Вернуться в Есть вопрос!

Кто сейчас на форуме (по активности за 10 минут)

Сейчас этот раздел просматривают: 1 гость